Ссылка на приватное зеркало нашего сайта всего за 1$. Внимание количество ограничено!!!

2 сезон

iTunes

1 сезон

1

2 сезон

2 сезон

iTunes

1 сезон

RePack

30

Ultimate

ВАЖНО

ИГРА 18+

pack

RePack

MK11
pack

Забери бонус

RePack

jed

!!Акция!!

Alien_Rage

RePack

fifa19

RePack

Assassins Creed: Odyssey

RePack

NEED FOR SPEED™ PAYBACK

4 сезон

9 сезон

Бесстыжие 9 сезон

Все сериалы

все сериалы на PB.wtf

RePack

FAR CRY 5
  

Однажды в Америке / Once Upon a Time in America / Extended Director's Cut (Серджио Леоне) [1984 г., драма, криминал, BDRip 1080p-HEVC 10bit, Профессиональный (многоголосый)] pb.wtf

Однажды в Америке через торрент pb.wtf

Размер: 4.74 GB | Добавлен: 1 год 11 мес. назад | Торрент скачан:168 раз
Скачать  

11-12-2018 19:44 Однажды в Америке Скачать торрент  

Однажды в Америке / Once Upon a Time in America / Extended Director's Cut
Год выпуска: 1984
Страна: США
Жанр: драма, криминал
Продолжительность: 04:11:09
Перевод: Профессиональный (многоголосый)
Субтитры: Русские Форсированные

Режиссер: Серджио Леоне



В ролях: Роберт Де Ниро, Джеймс Вудс, Элизабет МакГоверн, Джо Пеши

Описание: В бурные двадцатые годы, когда Америка веселилась под звуки джаза и каждый бродяга мечтал стать миллионером, в трущобах Нью-Йорка встретились несколько отчаянных парней. Убирая с дороги конкурентов, безжалостно карая предателей и нагло проворачивая хитроумные аферы, они стали королями преступного мира золотой эры «сухого закона». Они поклялись отдать жизнь друг за друга, зная, что самое главное для них — это дружба, долг и справедливость — не утопить в реках крови и бездонном океане денег. Спустя много лет судьба жестоко обошлась с легендарными гангстерами, заставив их исполнить свою клятву. Это случилось однажды в Америке…

Качество: BDRip 1080p
Формат: MKV
Видео кодек: H.265
Аудио кодек: AC3
Видео: HEVC/H.265, 1920x1080, ~2058 Kbps
Аудио#1: AC3, 6 ch, 640 Kbps - MVO
Релиз от: ADVOKAT69
скриншот  ,скриншот  ,скриншот  ,скриншот  ,

Общее
Уникальный идентификатор : 186534193022388745800490115816204728566 (0x8C552DC5CC08393794B957771FCEF8F6)
Полное имя : E:\Новая папка (2)\Однажды в Америке 1984 Restored Extended DC HEVC 10bit .mkv
Формат : Matroska
Версия формата : Version 4 / Version 2
Размер файла : 4,74 Гбайт
Продолжительность : 4 ч. 11 м.
Общий поток : 2700 Кбит/сек
Дата кодирования : UTC 2018-12-11 18:21:55
Программа кодирования : mkvmerge v9.2.0 ('Photograph') 64bit
Библиотека кодирования : libebml v1.3.3 + libmatroska v1.4.4

Видео
Идентификатор : 1
Формат : HEVC
Формат/Информация : High Efficiency Video Coding
Профиль формата : Main 10@L4@Main
Идентификатор кодека : V_MPEGH/ISO/HEVC
Продолжительность : 4 ч. 11 м.
Битрейт : 2058 Кбит/сек
Ширина : 1920 пикселей
Высота : 1080 пикселей
Соотношение сторон : 16:9
Режим частоты кадров : Постоянный
Частота кадров : 23,976 (24000/1001) кадра/сек
Цветовое пространство : YUV
Субдискретизация насыщенности : 4:2:0
Битовая глубина : 10 бит
Бит/(Пиксели*Кадры) : 0.041
Размер потока : 3,61 Гбайт (76%)
Библиотека кодирования : x265 1.9+88-b6d8e66e7f71:[Windows][GCC 5.3.0][64 bit] 10bit
Настройки программы : wpp / ctu=64 / min-cu-size=8 / max-tu-size=32 / tu-intra-depth=1 / tu-inter-depth=1 / me=1 / subme=2 / merange=57 / no-rect / no-amp / max-merge=2 / temporal-mvp / no-early-skip / rdpenalty=0 / no-tskip / no-tskip-fast / strong-intra-smoothing / no-lossless / no-cu-lossless / no-constrained-intra / no-fast-intra / open-gop / no-temporal-layers / interlace=0 / keyint=250 / min-keyint=23 / scenecut=40 / rc-lookahead=20 / lookahead-slices=0 / bframes=4 / bframe-bias=0 / b-adapt=2 / ref=3 / limit-refs=0 / no-limit-modes / weightp / no-weightb / aq-mode=1 / qg-size=64 / aq-strength=1.00 / cbqpoffs=0 / crqpoffs=0 / rd=3 / psy-rd=0.30 / rdoq-level=0 / psy-rdoq=0.00 / no-rd-refine / signhide / deblock / sao / no-sao-non-deblock / b-pyramid / cutree / no-intra-refresh / rc=2 / pass / bitrate=2057 / qcomp=0.60 / qpmin=0 / qpmax=51 / qpstep=4 / cplxblur=20.0 / qblur=0.5 / ipratio=1.40 / pbratio=1.30
Default : Да
Forced : Нет

Аудио
Идентификатор : 2
Формат : AC-3
Формат/Информация : Audio Coding 3
Идентификатор кодека : A_AC3
Продолжительность : 4 ч. 11 м.
Вид битрейта : Постоянный
Битрейт : 640 Кбит/сек
Каналы : 6 каналов
Расположение каналов : Front: L C R, Side: L R, LFE
Частота : 48,0 КГц
Частота кадров : 31,250 кадров/сек (1536 SPF)
Битовая глубина : 16 бит
Метод сжатия : С потерями
Размер потока : 1,12 Гбайт (24%)
Заголовок : Russian: Dolby Digital Audio / 640 kbps / 5.1 / 48 kHz / 640 kbps / DN -4dB
ServiceKind/String : Complete Main
Default : Да
Forced : Нет

Текст
Идентификатор : 3
Формат : PGS
Режим смешивания : zlib
Идентификатор кодека : S_HDMV/PGS
Идентификатор кодека/Информация : Picture based subtitle format used on BDs/HD-DVDs
Продолжительность : 4 ч. 10 м.
Битрейт : 821 бит/сек
ElementCount : 366
Размер потока : 1,47 Мбайт (0%)
Заголовок : Русский
Default : Да
Forced : Нет

Меню
00:00:00.000 : en:00:00:00.000
00:09:40.329 : en:00:09:40.329
00:19:15.612 : en:00:19:15.612
00:28:25.286 : en:00:28:25.286
00:38:45.948 : en:00:38:45.948
00:49:58.954 : en:00:49:58.954
01:01:07.747 : en:01:01:07.747
01:08:53.045 : en:01:08:53.045
01:20:22.651 : en:01:20:22.651
01:29:08.676 : en:01:29:08.676
01:38:21.228 : en:01:38:21.228
01:48:40.096 : en:01:48:40.096
02:01:04.840 : en:02:01:04.840
02:08:41.672 : en:02:08:41.672
02:18:40.645 : en:02:18:40.645
02:27:45.856 : en:02:27:45.856
02:40:21.611 : en:02:40:21.611
02:48:14.042 : en:02:48:14.042
03:03:06.642 : en:03:03:06.642
03:09:00.162 : en:03:09:00.162
03:18:09.627 : en:03:18:09.627
03:28:03.762 : en:03:28:03.762
03:40:42.103 : en:03:40:42.103
03:47:44.609 : en:03:47:44.609
03:59:39.907 : en:03:59:39.907
04:06:50.796 : en:04:06:50.796
04:11:09.345 : en:04:11:09.345

pb.wtf



Скачать Однажды в Америке через торрент https://d.radikal.ru/d10/1812/4b/edbeedcc0c8d.png Скачать фильм Однажды в Америке через торрент бесплантно в хорошем качестве Описание: В бурные двадцатые годы, когда Америка веселилась под звуки джаза и каждый бродяга мечтал стать миллионером, в трущобах Нью-Йорка ... 10 10 15
Info! Золотая раздача, скачанное не засчитывается.
Торрент: Зарегистрирован [2018-12-11 19:44] · скачан: 168 раз
Статус: √ проверено
Размер: 4.74 GB
Как cкачать? Как скачать Однажды в Америке через торрент | qTorrent

28-11-2019 20:33  

Отключить всю рекламу на сайте

11-12-2018 20:40 Однажды в Америке Скачать торрент  

    Дорогой пользователь! Огромная просьба, поблагодарите релизера, оцените раздачу и оставьте свои комментарий, если Вы скачали Однажды в Америке через торрент бесплатно! Внесите свою лепту в развитие PiratBit!
    Комментировать посты могут только пользователи прошедшие не сложную регистрацию
    Показать сообщения:    

    Однажды в Америке через торрент
    Скачать бесплатно Однажды в Америке
    Однажды в Америке скачать торрент
    Однажды в Америке смотреть онлайн
    Cкачать фильм Однажды в Америке бесплатно
    Однажды в Америке скачать торрент в хорошем качестве
    Однажды в Америке смотреть онлайн бесплатно в хорошем качестве


    Вы не можете начинать темы
    Вы не можете отвечать на сообщения
    Вы не можете редактировать свои сообщения
    Вы не можете удалять свои сообщения
    Вы не можете голосовать в опросах
    Вы не можете прикреплять файлы к сообщениям
    Вы можете скачивать файлы