Всегда рабочее зеркало просто перед .vidak.icu напиши любое слово или цифру, Пример http://u5m.vidak.icu

>

7.4

iTunes

7.4

2 сезон

9.4

1 сезон

1

7.4

2 сезон

7.2

iTunes

6.0

MVO

13

6.1

iTunes

8.3

Пиратка

30

ULTIMATE

pack

9.9

Лицензия

ВАЖНО

ИГРА 18+

pack

7.3

RePack

MK11

7.7

RePack

jed

7.8

RePack

fifa19

8.5

RePack

RDR2

RePack

NEED FOR SPEED™ PAYBACK

1 сезон

9 сезон

Бесстыжие 9 сезон

Все сериалы

все сериалы на PB.wtf

RePack

FAR CRY 5

Anonymous, доброй ночи, мы катастрофически не успеваем собрать деньги на оплату серверов, помогите нам пожалуйста 5,10,15р., для нас важна любая помощь . В качестве благодарности мы отключим Вам всю рекламу на сайте (укажите свой ник в строку Ваше имя)!

×
  
Magnet ссылка

Зомби: Пожиратели плоти /Zombie: Flesh Eaters / Zombi 2 (Лучио Фульчи) [1979 г., ужасы, фантастика, BDRip 1080p, 4K Remastered] 2xAVO pb.wtf

Зомби: Пожиратели плоти через торрент pb.wtf

Размер: 11.64 GB | Добавлен: 3 года 1 мес. назад | Торрент скачан:17 раз
Смотреть онлайн Зомби: Пожиратели плоти | Скачать    Ребята, помогите собрать деньги на оплату серверов!!!

11-12-2018 21:01 Зомби: Пожиратели плоти Скачать торрент  

Зомби: Пожиратели плоти / Zombie: Flesh Eaters / Zombi 2
Год выпуска: 1979
Страна: Италия
Жанр: Ужасы, фантастика
Продолжительность: 1:31:16
Перевод: Авторский (одноголосый)
Субтитры: Русские, английские

Режиссер: Лучио Фульчи

rating

В ролях: Тиса Фэрроу, Йен Маккаллок, Ричард Джонсон, Аль Кливер, Даккар, Стефания Д`Амарио, Ольга Карлатос, Уго Болонья

Описание: В бухту Нью-Йорка вплывает неуправляемая яхта, на борту которой нет ни души. Для проверки туда поднимаются двое полицейских, один из которых становится жертвой огромных размеров зомби, а второй расстреливает всю обойму пистолета в этого самого зомби, после чего тело падает в воду. Этим необычным делом, разумеется, заинтересовалась пресса в лице ушлого репортера Питера Веста, который проникает ночью на яхту и сталкивается там с дочерью ее владельца, Анной Баулс. Анна рассказывает Питеру о том, что это яхта ее отца, ученого, который несколько месяцев назад отправился на тропический остров, и о котором она не слышала уже больше месяца. Решив расследовать все обстоятельства на месте, любознательная парочка отправляется на остров, на котором эпидемия зомби как раз в самом разгаре...
Качество: BDRip 1080p (4K Remastered)
Формат: MKV
Видео кодек: MPEG-4 AVC
Аудио кодек: AC3
Видео: MPEG-4 AVC, 16.9 Mбит/с, 1920х800
Аудио#1: Русский, AC3, 6 ch, 448 Кбит/с - Гаврилов
Аудио#2: Русский, AC3, 6 ch, 448 Кбит/с - Живов
Аудио#3: Английский, AC3, 6 ch, 448 Кбит/с
Видео
Идентификатор : 1
Формат : AVC
Формат/Информация : Advanced Video Codec
Профиль формата : High@L4.1
Настройки формата : CABAC / 5 Ref Frames
Параметр CABAC формата : Да
Параметр RefFrames формата : 5 кадров
Идентификатор кодека : V_MPEG4/ISO/AVC
Продолжительность : 1 ч. 31 м.
Битрейт : 16,9 Мбит/сек
Ширина : 1920 пикселей
Высота : 800 пикселей
Соотношение сторон : 2,40:1
Режим частоты кадров : Постоянный
Частота кадров : 23,976 (24000/1001) кадра/сек
Цветовое пространство : YUV
Субдискретизация насыщенности : 4:2:0
Битовая глубина : 8 бит
Тип развёртки : Прогрессивная
Бит/(Пиксели*Кадры) : 0.459
Размер потока : 10,6 Гбайт (91%)
Заголовок : ~V~
Библиотека кодирования : x264 core 157 r2935 545de2f
Настройки программы : cabac=1 / ref=5 / deblock=1:-3:-3 / analyse=0x3:0x133 / me=umh / subme=11 / psy=1 / psy_rd=1.00:0.00 / mixed_ref=1 / me_range=32 / chroma_me=1 / trellis=2 / 8x8dct=1 / cqm=0 / deadzone=21,11 / fast_pskip=1 / chroma_qp_offset=-2 / threads=12 / lookahead_threads=1 / sliced_threads=0 / nr=0 / decimate=0 / interlaced=0 / bluray_compat=0 / constrained_intra=0 / bframes=12 / b_pyramid=2 / b_adapt=2 / b_bias=0 / direct=3 / weightb=1 / open_gop=0 / weightp=2 / keyint=240 / keyint_min=23 / scenecut=40 / intra_refresh=0 / rc=2pass / mbtree=0 / bitrate=16917 / ratetol=1.0 / qcomp=0.76 / qpmin=0 / qpmax=69 / qpstep=4 / cplxblur=20.0 / qblur=0.5 / ip_ratio=1.30 / pb_ratio=1.30 / aq=1:0.70
Язык : Английский
Default : Да
Forced : Нет

Аудио #1
Идентификатор : 2
Формат : AC-3
Формат/Информация : Audio Coding 3
Коммерческое название : Dolby Digital
Идентификатор кодека : A_AC3
Продолжительность : 1 ч. 31 м.
Вид битрейта : Постоянный
Битрейт : 448 Кбит/сек
Каналы : 6 каналов
Channel layout : L R C LFE Ls Rs
Частота : 48,0 КГц
Частота кадров : 31,250 кадров/сек (1536 SPF)
Битовая глубина : 16 бит
Метод сжатия : С потерями
Размер потока : 293 Мбайт (2%)
Заголовок : AVO [А.Гаврилов]
Язык : Русский
Service Kind : Complete Main
Default : Да
Forced : Да

Аудио #2
Идентификатор : 3
Формат : AC-3
Формат/Информация : Audio Coding 3
Коммерческое название : Dolby Digital
Идентификатор кодека : A_AC3
Продолжительность : 1 ч. 31 м.
Вид битрейта : Постоянный
Битрейт : 448 Кбит/сек
Каналы : 6 каналов
Channel layout : L R C LFE Ls Rs
Частота : 48,0 КГц
Частота кадров : 31,250 кадров/сек (1536 SPF)
Битовая глубина : 16 бит
Метод сжатия : С потерями
Размер потока : 293 Мбайт (2%)
Заголовок : AVO [Ю.Живов]
Язык : Русский
Service Kind : Complete Main
Default : Нет
Forced : Нет

Аудио #3
Идентификатор : 4
Формат : AC-3
Формат/Информация : Audio Coding 3
Коммерческое название : Dolby Digital
Идентификатор кодека : A_AC3
Продолжительность : 1 ч. 31 м.
Вид битрейта : Постоянный
Битрейт : 448 Кбит/сек
Каналы : 6 каналов
Channel layout : L R C LFE Ls Rs
Частота : 48,0 КГц
Частота кадров : 31,250 кадров/сек (1536 SPF)
Битовая глубина : 16 бит
Метод сжатия : С потерями
Размер потока : 293 Мбайт (2%)
Язык : Английский
Service Kind : Complete Main
Default : Нет
Forced : Нет

Текст #1
Идентификатор : 5
Формат : UTF-8
Идентификатор кодека : S_TEXT/UTF8
Идентификатор кодека/Информация : UTF-8 Plain Text
Заголовок : Full
Язык : Русский
Default : Нет
Forced : Нет

Текст #2
Идентификатор : 6
Формат : UTF-8
Идентификатор кодека : S_TEXT/UTF8
Идентификатор кодека/Информация : UTF-8 Plain Text
Язык : Английский
Default : Нет
Forced : Нет

Меню
00:00:00.000 : en:1. Main Titles
00:01:51.444 : en:2. Abandoned Ship
00:08:06.611 : en:3. Investigation
00:12:50.478 : en:4. Snooping Around
00:19:05.269 : en:5. Travel Plans
00:23:21.316 : en:6. Trouble In Paradise
00:30:35.250 : en:7. Shark vs. Zombie
00:37:46.722 : en:8. The Afflicted
00:41:13.179 : en:9. Splinter In The Eye
00:46:19.943 : en:10. Damage Control
00:52:07.999 : en:11. Bullet In The Head
00:59:44.372 : en:12. Zombie Flesh Eaters
01:04:47.884 : en:13. Jungle Drums
01:08:13.380 : en:14. The Dead Shall Rise
01:15:27.648 : en:15. Under Siege
01:22:38.870 : en:16. Last Stand
01:27:01.090 : en:17. Taking Over
01:30:28.631 : en:18. End Credits

скриншот   скриншот   скриншот   скриншот   скриншот   скриншот  

pb.wtf



Скачать Зомби: Пожиратели плоти через торрент https://pic1.kartinco.top/images/12/38b9y.jpg Скачать, смотреть онлайн Зомби: Пожиратели плоти бесплантно в хорошем качестве Описание: В бухту Нью-Йорка вплывает неуправляемая яхта, на борту которой нет ни души. Для проверки туда поднимаются двое полицейских, один ... 10 10 2
Info! Серебряная раздача, засчитывается только 50% скачанного.
Торрент: Зарегистрирован [2018-12-11 21:01] · скачан: 17 раз
Статус: √ проверено
Размер: 11.64 GB
Как cкачать? Как скачать Зомби: Пожиратели плоти через торрент | UTorrent

28-11-2019 20:33  

Отключить всю рекламу на сайте

    Дорогой пользователь! Огромная просьба, поблагодарите релизера, оцените раздачу и оставьте свои комментарий, если Вы скачали Зомби: Пожиратели плоти через торрент бесплатно!
    Комментировать посты могут только пользователи прошедшие не сложную регистрацию
    Показать сообщения:    

    Зомби: Пожиратели плоти через торрент
    Скачать бесплатно Зомби: Пожиратели плоти
    Зомби: Пожиратели плоти скачать торрент
    Зомби: Пожиратели плоти смотреть онлайн
    Cкачать фильм Зомби: Пожиратели плоти бесплатно
    Зомби: Пожиратели плоти скачать торрент в хорошем качестве
    Зомби: Пожиратели плоти смотреть онлайн бесплатно в хорошем качестве


    Вы не можете начинать темы
    Вы не можете отвечать на сообщения
    Вы не можете редактировать свои сообщения
    Вы не можете удалять свои сообщения
    Вы не можете голосовать в опросах
    Вы не можете прикреплять файлы к сообщениям
    Вы можете скачивать файлы