Доктор Стрэндж

Лицензия

Добыча

Дубляж

Дом дракона

1 сезон

Тор

Дубляж

В эфире

Дубляж

Там, где раки поют

MVO

Властелин колец

1 сезон

GLOBAL

pack

Рекомендуем

30

Пиратка

ВАЖНО

ВАЖНО

Ghostwire

Пиратка

jed

RePack

nioh2

RePack

RDR2

RePack

NEED FOR SPEED™ PAYBACK

RePack

скачать торрент

Кинопоиск HD

Острые козырьки 6 сезон

6 сезон

FAR CRY 6

RePack

скачать торрент

Лицензия

скачать торрент

MVO

1

1 сезон

скачать торрент

1 сезон

скачать торрент

Лицензия

  

Галвестон / Galveston (Мелани Лоран) [2018, Боевик, триллер, драма, криминал, BD Remux 1080p] Дубляж [iTunes]

Галвестон через торрент pb.wtf

Размер: 17.56 GB | Добавлен: 3 года 11 мес. назад | Торрент скачан:48 раз
Смотреть онлайн | Скачать   

12-12-2018 03:58 Галвестон Скачать торрент  

Галвестон / Galveston
Год выпуска: 2018
Страна: США
Жанр: Боевик, триллер, драма, криминал
Продолжительность: 01:33:35
Перевод: Дублированный | iTunes
Субтитры: Русские (Full), английские (Full, SDH)

Режиссер: Мелани Лоран

rating

В ролях:

Лили Рейнхарт, Элль Фэннинг, Бен Фостер, Мария Вальверде, Бо Бриджес, Роберт Арамайо, Эдеперо Одуйе, Тинсли Прайс, Эннистон Прайс, Хайди Левандовски

Описание:

Фильм рассказывает о киллере по имени Рой, у которого обнаруживают серьезные проблемы с легкими. Вскоре криминальный босс отправляет его на очередное задание, но оказывается, что Роя послали на верную смерть. Чудом оставшись в живых и застрелив своих потенциальных убийц, наш герой собирается бежать, но замечает юную Рокки, которую бандиты держали в плену. С неохотой он освобождает девушку и берет её с собой. Парочка отправляется в Галвестон, где Рой преисполнен решимости найти убежище, но Рокки вносит свои коррективы в планы своего спасителя.

Качество: BD Remux 1080p
Формат: MKV

Видео: MPEG-4 AVC, 1920x1080, 22.7 Mbit/s, 24 fps
Аудио#1: 48 kHz, AC3, 5.1, 384 Kbps | iTunes | RUS |
Аудио#2: 48 kHz, DTS-HD MA, 5.1, 3769 Kbps | Оригинал | ENG |
скриншот  скриншот  скриншот  скриншот  скриншот  

General
Unique ID : 290669649950099252274140493946706215736 (0xDAACF032E0E93AC8AB171F98CC0C4338)
Complete name : D:Video111Galveston.2018.BDREMUX.1080p.seleZen.mkv
Format : Matroska
Format version : Version 4
File size : 17.6 GiB
Duration : 1 h 33 min
Overall bit rate mode : Variable
Overall bit rate : 26.9 Mb/s
Movie name : Galveston (2018) from seleZen
Encoded date : UTC 2018-12-12 03:44:12
Writing application : mkvmerge v29.0.0 ('Like It Or Not') 64-bit
Writing library : libebml v1.3.6 + libmatroska v1.4.9

Video
ID : 1
Format : AVC
Format/Info : Advanced Video Codec
Format profile : [email protected]
Format settings : CABAC / 4 Ref Frames
Format settings, CABAC : Yes
Format settings, ReFrames : 4 frames
Codec ID : V_MPEG4/ISO/AVC
Duration : 1 h 33 min
Bit rate mode : Variable
Bit rate : 22.7 Mb/s
Maximum bit rate : 35.0 Mb/s
Width : 1 920 pixels
Height : 1 080 pixels
Display aspect ratio : 16:9
Frame rate mode : Constant
Frame rate : 24.000 FPS
Standard : NTSC
Color space : YUV
Chroma subsampling : 4:2:0
Bit depth : 8 bits
Scan type : Progressive
Bits/(Pixel*Frame) : 0.456
Stream size : 14.8 GiB (85%)
Language : English
Default : Yes
Forced : No
Color range : Limited
Color primaries : BT.709
Transfer characteristics : BT.709
Matrix coefficients : BT.709

Audio #1
ID : 2
Format : AC-3
Format/Info : Audio Coding 3
Commercial name : Dolby Digital
Codec ID : A_AC3
Duration : 1 h 33 min
Bit rate mode : Constant
Bit rate : 384 kb/s
Channel(s) : 6 channels
Channel layout : L R C LFE Ls Rs
Sampling rate : 48.0 kHz
Frame rate : 31.250 FPS (1536 SPF)
Bit depth : 16 bits
Compression mode : Lossy
Stream size : 257 MiB (1%)
Title : iTunes
Language : Russian
Service kind : Complete Main
Default : Yes
Forced : Yes

Audio #2
ID : 3
Format : DTS XLL
Format/Info : Digital Theater Systems
Commercial name : DTS-HD Master Audio
Codec ID : A_DTS
Duration : 1 h 33 min
Bit rate mode : Variable
Bit rate : 3 769 kb/s
Channel(s) : 6 channels
Channel layout : C L R Ls Rs LFE
Sampling rate : 48.0 kHz
Frame rate : 93.750 FPS (512 SPF)
Bit depth : 24 bits
Compression mode : Lossless
Stream size : 2.46 GiB (14%)
Title : Original
Language : English
Default : No
Forced : No

Text #1
ID : 4
Format : UTF-8
Codec ID : S_TEXT/UTF8
Codec ID/Info : UTF-8 Plain Text
Duration : 1 h 32 min
Bit rate : 49 b/s
Count of elements : 701
Stream size : 33.2 KiB (0%)
Title : Full (Focs)
Language : Russian
Default : No
Forced : No

Text #2
ID : 5
Format : UTF-8
Codec ID : S_TEXT/UTF8
Codec ID/Info : UTF-8 Plain Text
Duration : 1 h 31 min
Bit rate : 44 b/s
Count of elements : 1044
Stream size : 30.0 KiB (0%)
Title : Full
Language : English
Default : No
Forced : No

Text #3
ID : 6
Format : UTF-8
Codec ID : S_TEXT/UTF8
Codec ID/Info : UTF-8 Plain Text
Duration : 1 h 31 min
Bit rate : 45 b/s
Count of elements : 1051
Stream size : 30.8 KiB (0%)
Title : SDH
Language : English
Default : No
Forced : No

Menu
00:00:00.000 : en:Chapter 1
00:05:47.625 : en:Chapter 2
00:10:47.333 : en:Chapter 3
00:16:56.125 : en:Chapter 4
00:23:17.625 : en:Chapter 5
00:30:23.167 : en:Chapter 6
00:35:43.625 : en:Chapter 7
00:41:01.667 : en:Chapter 8
00:47:51.417 : en:Chapter 9
00:54:25.458 : en:Chapter 10
01:03:35.917 : en:Chapter 11
01:08:33.708 : en:Chapter 12
01:12:25.208 : en:Chapter 13
01:17:02.625 : en:Chapter 14
01:21:33.417 : en:Chapter 15
01:27:49.000 : en:Chapter 16




Скачать Галвестон через торрент http://img14.lostpic.net/2018/12/12/26f170c79d08a571d0b365edb2822a96.jpg Скачать, смотреть онлайн Галвестон бесплантно в хорошем качестве Описание: Фильм рассказывает о киллере по имени Рой, у которого обнаруживают серьезные проблемы с легкими. Вскоре криминальный босс ... 10 10 5
Торрент: Зарегистрирован [2018-12-12 03:58] · скачан: 48 раз
Статус: √ проверено
Размер: 17.56 GB
Как cкачать? Как скачать Галвестон через торрент | UTorrent

% Раздел Тема Автор DL S | L
Ultra HD (UHD: 2K, 4K, 8K) [ 44.65 GB ] Галвестон / Galveston | iTunes | 2160p bober100 Скачать
1 | 0
Ultra HD (UHD: 2K, 4K, 8K) [ 9.34 GB ] Галвестон / Galveston | iTunes | 2160p bober100 Скачать
1 | 0
Фильмы 2018 [DVDrip, WEB-DLRip, HDrip] (DUB, MVO) [ 1.42 GB ] Галвестон / Galveston | Лицензия | BDRip Twi7ter Скачать
1 | 0
Фильмы 2018 [DVDrip, WEB-DLRip, HDrip] (DUB, MVO) [ 745 MB ] Галвестон / Galveston | iTunes | HDRip bober100 Скачать
1 | 0
Фильмы (WEB-DL 720p, 1080p) [ 3.49 GB ] Галвестон / Galveston | iTunes | 1080p killermax2013 Скачать
1 | 0
Фильмы [HD 720p, 1080p] (Хороший звук DUB, MVO) [ 7.37 GB ] Галвестон / Galveston | iTunes | 1080p bober100 Скачать
1 | 0
Фильмы 2018 [DVDrip, WEB-DLRip, HDrip] (DUB, MVO) [ 1.42 GB ] Галвестон / Galveston | iTunes | BDRip bober100 Скачать
1 | 0

28-11-2019 20:33  


Отключить вcю реклaмy на сайте, в т.ч. и в плеере онлайн просмотра!

    Дорогой пользователь! Огромная просьба, поблагодарите релизера, оцените раздачу и оставьте свои комментарий, если Вы скачали Галвестон через торрент бесплатно!!
    Комментировать посты могут только пользователи прошедшие не сложную регистрацию
    Показать сообщения:    


    Галвестон через торрент
    Скачать бесплатно Галвестон
    Галвестон скачать торрент
    Галвестон смотреть онлайн
    Cкачать фильм Галвестон бесплатно
    Галвестон скачать торрент в хорошем качестве
    Галвестон смотреть онлайн бесплатно в хорошем качестве
    Вы не можете начинать темы
    Вы не можете отвечать на сообщения
    Вы не можете редактировать свои сообщения
    Вы не можете удалять свои сообщения
    Вы не можете голосовать в опросах
    Вы не можете прикреплять файлы к сообщениям
    Вы можете скачивать файлы
    Галвестон / Galveston [2018, Боевик, триллер, драма, криминал, BD Remux 1080p] Дубляж [iTunes] смотреть онлайн, скачать торрент picoco.icu