новый адрес
Ссылка на приватное зеркало всего за 1$. Внимание количество ограничено!!!

iTunes

1+1

iTunes

мы

WEB-DL

1

iTunes

Чернобыль

iTunes

Ральф против интернета

Лицензия

ПШазам

Лицензия

Оно 2

Лицензия

30
pack

Вам бонус

ВАЖНО

!!Акция!!

Alien_RageХит недели

RePack

Resident Evil 21

ИГРА 18+

pack

RePack

jed

!!Акция!!

Alien_Rage

RePack

fifa19

RePack

Assassins Creed: Odyssey

RePack

NEED FOR SPEED™ PAYBACK

3 сезон

9 сезон

Бесстыжие 9 сезон

Все сериалы

все сериалы на PB.wtf

RePack

FAR CRY 5
Ребята, катастрофически не хватает 1900р. для оплаты серверов за Октябрь (всвязи с блокировками трафик упал в 3 раза), 1-2р., выручайте.
  

Багровая мята / Peppermint (Пьер Морель) [2018, боевик, триллер, драма, BDRip-AVC] DUB [Лицензия] pb.wtf

Багровая мята через торрент pb.wtf

Раздают: 1 [ 0 KB/s ]
Размер: 1.93 GB | Добавлен: 8 мес. назад | Торрент скачан:207 раз
Скачать  

12-12-2018 05:25 Багровая мята Скачать торрент  

Багровая мята / Peppermint«У каждой мести свой вкус и цвет»
Год выпуска: 2018
Страна: США, Гонконг
Жанр: боевик, триллер, драма
Продолжительность: 01:42:02
Перевод: Дублированный | Лицензия
Субтитры: Английские (полные, SDH)

Режиссер: Пьер Морель

rating

В ролях:

Дженнифер Гарнер, Джон Галлахер мл., Джон Ортис, Хуан Пабло Раба, Энни Илонзе, Джефф Хефнер, Кэйли Флеминг, Эдди Шин, Метод Мэн, Тайсон Риттер

Описание:

Когда система закрывает глаза на убийство ее семьи, она решает вершить справедливость сама: очистить город от преступников и продажных полицейских, чтобы отомстить за любимых. Ведь месть - это блюдо, которое подают холодным. Холодным, как мороженое со вкусом мяты, которое так любила ее единственная дочь.

Качество: BDRip-AVC
Формат: MKV

Видео: 1024x428 (2.40:1), 23,976 fps, x264 ~1 812 kbps avg, 0.172 bit/pixel
Аудио#1: 48 kHz, AC3 Dolby Digital, 3/2 (L,C,R,l,r) + LFE ch, ~448.00 kbps avg | RUS (Лицензия)
Аудио#2: 48 kHz, AC3 Dolby Digital, 3/2 (L,C,R,l,r) + LFE ch, ~448.00 kbps avg | ENG
скриншот  скриншот  скриншот  скриншот  скриншот  

Общее
Уникальный идентификатор : 206076196637628042791127144237018135886 (0x9B08D4F0628F58B6A913B84082F03D4E)
Полное имя : D:ЗагрузкиPeppermint.2018.BDRip(AVC).OlLanDGroup.mkv
Формат : Matroska
Версия формата : Version 4 / Version 2
Размер файла : 1,93 Гбайт
Продолжительность : 1 ч. 42 м.
Общий поток : 2705 Кбит/сек
Название фильма : Peppermint.2018 #TorpedoUK#
Дата кодирования : UTC 2019-04-06 17:34:54
Программа кодирования : mkvmerge v6.5.0 ('Isn't she lovely') built on Oct 20 2013 12:50:05
Библиотека кодирования : libebml v1.3.0 + libmatroska v1.4.1

Видео
Идентификатор : 1
Формат : AVC
Формат/Информация : Advanced Video Codec
Профиль формата : High@L4.1
Настройки формата : CABAC / 10 Ref Frames
Параметр CABAC формата : Да
Параметр ReFrames формата : 10 кадров
Идентификатор кодека : V_MPEG4/ISO/AVC
Продолжительность : 1 ч. 42 м.
Битрейт : 1812 Кбит/сек
Ширина : 1024 пикселя
Высота : 428 пикселей
Соотношение сторон : 2,40:1
Режим частоты кадров : Постоянный
Частота кадров : 23,976 (24000/1001) кадра/сек
Цветовое пространство : YUV
Субдискретизация насыщенности : 4:2:0
Битовая глубина : 8 бит
Тип развёртки : Прогрессивная
Бит/(Пиксели*Кадры) : 0.172
Размер потока : 1,25 Гбайт (65%)
Библиотека кодирования : x264 core 146 r2538 121396c
Настройки программы : cabac=1 / ref=10 / deblock=1:-3:-3 / analyse=0x3:0x113 / me=umh / subme=11 / psy=1 / psy_rd=0.98:0.04 / mixed_ref=1 / me_range=48 / chroma_me=1 / trellis=2 / 8x8dct=1 / cqm=0 / deadzone=21,11 / fast_pskip=1 / chroma_qp_offset=-3 / threads=6 / lookahead_threads=1 / sliced_threads=0 / nr=0 / decimate=1 / interlaced=0 / bluray_compat=0 / constrained_intra=0 / bframes=11 / b_pyramid=2 / b_adapt=2 / b_bias=0 / direct=3 / weightb=1 / open_gop=0 / weightp=2 / keyint=240 / keyint_min=23 / scenecut=40 / intra_refresh=0 / rc_lookahead=40 / rc=2pass / mbtree=0 / bitrate=1812 / ratetol=1.0 / qcomp=0.60 / qpmin=0 / qpmax=69 / qpstep=4 / cplxblur=20.0 / qblur=0.5 / vbv_maxrate=50000 / vbv_bufsize=62500 / nal_hrd=none / filler=0 / ip_ratio=1.40 / pb_ratio=1.30 / aq=1:1.00
Язык : English
Default : Да
Forced : Нет

Аудио #1
Идентификатор : 2
Формат : AC-3
Формат/Информация : Audio Coding 3
Идентификатор кодека : A_AC3
Продолжительность : 1 ч. 42 м.
Вид битрейта : Постоянный
Битрейт : 448 Кбит/сек
Каналы : 6 каналов
Расположение каналов : Front: L C R, Side: L R, LFE
Частота : 48,0 КГц
Частота кадров : 31,250 кадров/сек (1536 SPF)
Битовая глубина : 16 бит
Метод сжатия : С потерями
Размер потока : 327 Мбайт (17%)
Заголовок : Лицензия
Язык : Russian
Service kind : Complete Main
Default : Да
Forced : Нет

Аудио #2
Идентификатор : 3
Формат : AC-3
Формат/Информация : Audio Coding 3
Идентификатор кодека : A_AC3
Продолжительность : 1 ч. 42 м.
Вид битрейта : Постоянный
Битрейт : 448 Кбит/сек
Каналы : 6 каналов
Расположение каналов : Front: L C R, Side: L R, LFE
Частота : 48,0 КГц
Частота кадров : 31,250 кадров/сек (1536 SPF)
Битовая глубина : 16 бит
Метод сжатия : С потерями
Размер потока : 327 Мбайт (17%)
Заголовок : [Original]
Язык : English
Service kind : Complete Main
Default : Нет
Forced : Нет

Текст #1
Идентификатор : 4
Формат : UTF-8
Идентификатор кодека : S_TEXT/UTF8
Идентификатор кодека/Информация : UTF-8 Plain Text
Заголовок : Full
Язык : English
Default : Нет
Forced : Нет

Текст #2
Идентификатор : 5
Формат : UTF-8
Идентификатор кодека : S_TEXT/UTF8
Идентификатор кодека/Информация : UTF-8 Plain Text
Заголовок : SDH
Язык : English
Default : Нет
Forced : Нет

Меню
00:00:00.000 : :Глава 01
00:05:49.474 : :Глава 02
00:09:23.854 : :Глава 03
00:14:09.598 : :Глава 04
00:20:52.000 : :Глава 05
00:26:34.593 : :Глава 06
00:30:55.311 : :Глава 07
00:35:11.692 : :Глава 08
00:40:33.097 : :Глава 09
00:45:56.795 : :Глава 10
00:51:05.228 : :Глава 11
00:56:15.872 : :Глава 12
01:01:48.663 : :Глава 13
01:05:45.107 : :Глава 14
01:11:02.007 : :Глава 15
01:16:12.401 : :Глава 16
01:19:50.243 : :Глава 17
01:25:28.832 : :Глава 18
01:30:58.244 : :Глава 19
01:35:04.573 : :Глава 20

pb.wtf



Скачать Багровая мята через торрент http://img14.lostpic.net/2018/12/12/6061c7493647e8ea46f1f61bb6107f1c.jpg Скачать фильм Багровая мята через торрент бесплантно в хорошем качестве Описание: Когда система закрывает глаза на убийство ее семьи, она решает вершить справедливость сама: очистить город от преступников и ... 9.6 10 10
Торрент: Зарегистрирован [2019-04-06 17:40] · скачан: 207 раз
Статус: √ проверено
Размер: 1.93 GB
Как cкачать? Как скачать Багровая мята через торрент | qTorrent

% Раздел Тема Автор DL S | L
Фильмы [HD 720p, 1080p] (Хороший звук DUB, MVO) [ 4.04 GB ] Багровая мята / Peppermint [2018 BDRip 720p] DUB [] bober100 Скачать
2 | 0
Фильмы [HD 720p, 1080p] (Хороший звук DUB, MVO) [ 6.45 GB ] Багровая мята / Peppermint [2018 BDRip 1080p] DUB [] bober100 Скачать
2 | 0
Фильмы (Blu-ray, BD-Remux, HDDVD) [ 31.7 GB ] Багровая мята / Peppermint [2018 BD Remux 1080p] 2xAVO+DUB [] bober100 Скачать
1 | 0
Фильмы (Blu-ray, BD-Remux, HDDVD) [ 31.72 GB ] Багровая мята / Peppermint [2018 Blu-ray 1080p] [Rus Transfer] DUB [] bober100 Скачать
1 | 0
Фильмы (HD 720p, 1080p) (48-60 fps) [ 11.97 GB ] Багровая мята / Peppermint [2018 BDRip 1080p 60fps] sheker187 Скачать
1 | 0
Фильмы (WEB-DL 720p, 1080p) [ 3.79 GB ] Багровая мята / Peppermint [2018 WEB-DL 1080p] bober100 Скачать
5 | 0
Фильмы 2018 [DVDrip, WEB-DLRip, HDrip] (DUB, MVO) [ 1.46 GB ] Багровая мята / Peppermint [2018 BDRip] - [] Twi7ter Скачать
3 | 0

28-11-2019 20:33  

Отключить всю рекламу на сайте

07-04-2019 10:14 Багровая мята Скачать торрент  

Фильм понравился, хоть немного в некоторых местах утрированно , но я посмотрел с удовольствием! Автору спасибо за релиз! pb.wtf



    Дорогой пользователь! Огромная просьба, поблагодарите релизера, оцените раздачу и оставьте свои комментарий, если Вы скачали Багровая мята через торрент бесплатно! Внесите свою лепту в развитие PiratBit!
    Комментировать посты могут только пользователи прошедшие не сложную регистрацию
    Показать сообщения:    

    Багровая мята через торрент
    Скачать бесплатно Багровая мята
    Багровая мята скачать торрент
    Багровая мята смотреть онлайн
    Cкачать фильм Багровая мята бесплатно
    Багровая мята скачать торрент в хорошем качестве
    Багровая мята смотреть онлайн бесплатно в хорошем качестве


    Вы не можете начинать темы
    Вы не можете отвечать на сообщения
    Вы не можете редактировать свои сообщения
    Вы не можете удалять свои сообщения
    Вы не можете голосовать в опросах
    Вы не можете прикреплять файлы к сообщениям
    Вы можете скачивать файлы