новый адрес
Ссылка на приватное зеркало всего за 1$. Внимание количество ограничено!!!

iTunes

1+1

iTunes

мы

WEB-DL

1

iTunes

Чернобыль

iTunes

Ральф против интернета

Лицензия

ПШазам

Лицензия

Оно 2

Лицензия

30
pack

Вам бонус

ВАЖНО

!!Акция!!

Alien_RageХит недели

RePack

Resident Evil 21

ИГРА 18+

pack

RePack

jed

!!Акция!!

Alien_Rage

RePack

fifa19

RePack

Assassins Creed: Odyssey

RePack

NEED FOR SPEED™ PAYBACK

3 сезон

9 сезон

Бесстыжие 9 сезон

Все сериалы

все сериалы на PB.wtf

RePack

FAR CRY 5
Ребята, катастрофически не хватает 1900р. для оплаты серверов за Октябрь (всвязи с блокировками трафик упал в 3 раза), 1-2р., выручайте.
  

Ремнант: Всё ещё вижу тебя / I Still See You (Скотт Спир) [2018, Триллер, BDRip-AVC] MVO [HDrezka Studio] +DUB [Лицензия R5] pb.wtf

Ремнант: Всё ещё вижу тебя через торрент pb.wtf

Размер: 2.01 GB | Добавлен: 9 мес. назад | Торрент скачан:63 раза
Скачать  

12-12-2018 08:22 Ремнант: Всё ещё вижу тебя Скачать торрент  

Ремнант: Всё ещё вижу тебя / I Still See You«Всё ещё вижу тебя» Год выпуска: 2018
Страна: США
Жанр: Триллер
Продолжительность: 01:38:11
Перевод:

Дублированный | Лицензия R5
Профессиональный многоголосый | HDrezka Studio

Субтитры: Английские (полные, SDH)

Режиссер: Скотт Спир

rating

В ролях:

Белла Торн, Дермот Малруни, Ричард Хэрмон, Луис Хертэм, Сара Томпсон, Шон Бенсон, Хью Диллон, Эми Прайс-Фрэнсис, Арден Альфонсо, Алисса Выспяньский

Описание:

Загадочная аномалия стирает границы между миром живых и мёртвых. Бесплотные призраки погибших людей внезапно вторгаются в дома и жизни своих близких и столь же неожиданно исчезают. Ремнанты. Никто не знает откуда они взялись и зачем пришли. Вероника решает сделать шаг в потусторонний мир для того, чтобы разгадать эту тайну. Но путь ей преграждает таинственный убийца из прошлого…

Качество: BDRip-AVC
Формат: MKV

Видео: 1024x428 (2.40:1), 23,976 fps, x264 ~1 833 kbps avg, 0.174 bit/pixel
Аудио#1: 48 kHz, AC3 Dolby Digital, 3/2 (L,C,R,l,r) + LFE ch, ~448.00 kbps avg | RUS (Лицензия)
Аудио#2: 48 kHz, AC3 Dolby Digital, 2 (L,R) ch, ~192.00 kbps avg | RUS (HDRezka Studio)
Аудио#3: 48 kHz, AC3 Dolby Digital, 3/2 (L,C,R,l,r) + LFE ch, ~448.00 kbps avg | ENG
скриншот  скриншот  скриншот  скриншот  скриншот  

Общее
Уникальный идентификатор : 20472157067182009906037960678057364987 (0xF66CB45B18968D4769A0206C492CDFB)
Полное имя : F:OlLanDGroupI.Still.See.You.2018.BDRip(AVC).OlLanDGroup.mkv
Формат : Matroska
Версия формата : Version 4 / Version 2
Размер файла : 2,01 Гбайт
Продолжительность : 1 ч. 38 м.
Общий поток : 2924 Кбит/сек
Название фильма : I.Still.See.You.2018 #TorpedoUK#
Дата кодирования : UTC 2019-03-06 15:16:18
Программа кодирования : mkvmerge v29.0.0 ('Like It Or Not') 64-bit
Библиотека кодирования : libebml v1.3.6 + libmatroska v1.4.9

Видео
Идентификатор : 1
Формат : AVC
Формат/Информация : Advanced Video Codec
Профиль формата : High@L4.1
Параметр CABAC формата : Да
Параметр ReFrames формата : 10 кадров
Идентификатор кодека : V_MPEG4/ISO/AVC
Продолжительность : 1 ч. 38 м.
Битрейт : 1833 Кбит/сек
Ширина : 1024 пикселя
Высота : 428 пикселей
Соотношение сторон : 2,40:1
Режим частоты кадров : Постоянный
Частота кадров : 23,976 (24000/1001) кадра/сек
Цветовое пространство : YUV
Субдискретизация насыщенности : 4:2:0
Битовая глубина : 8 бит
Тип развёртки : Прогрессивная
Бит/(Пиксели*Кадры) : 0.174
Размер потока : 1,26 Гбайт (63%)
Библиотека кодирования : x264 core 146 r2538 121396c
Настройки программы : cabac=1 / ref=10 / deblock=1:-3:-3 / analyse=0x3:0x113 / me=umh / subme=11 / psy=1 / psy_rd=0.97:0.05 / mixed_ref=1 / me_range=48 / chroma_me=1 / trellis=2 / 8x8dct=1 / cqm=0 / deadzone=21,11 / fast_pskip=1 / chroma_qp_offset=-3 / threads=6 / lookahead_threads=1 / sliced_threads=0 / nr=0 / decimate=1 / interlaced=0 / bluray_compat=0 / constrained_intra=0 / bframes=11 / b_pyramid=2 / b_adapt=2 / b_bias=0 / direct=3 / weightb=1 / open_gop=0 / weightp=2 / keyint=240 / keyint_min=23 / scenecut=40 / intra_refresh=0 / rc_lookahead=40 / rc=2pass / mbtree=0 / bitrate=1833 / ratetol=1.0 / qcomp=0.60 / qpmin=0 / qpmax=69 / qpstep=4 / cplxblur=20.0 / qblur=0.5 / vbv_maxrate=50000 / vbv_bufsize=62500 / nal_hrd=none / filler=0 / ip_ratio=1.40 / pb_ratio=1.30 / aq=1:1.00
Язык : English
Default : Да
Forced : Нет

Аудио #1
Идентификатор : 2
Формат : AC-3
Формат/Информация : Audio Coding 3
Расширение режима : CM (complete main)
Параметр Endianness формата : Big
Идентификатор кодека : A_AC3
Продолжительность : 1 ч. 38 м.
Вид битрейта : Постоянный
Битрейт : 448 Кбит/сек
Каналы : 6 каналов
Расположение каналов : Front: L C R, Side: L R, LFE
Частота : 48,0 КГц
Частота кадров : 31,250 кадров/сек (1536 spf)
Битовая глубина : 16 бит
Метод сжатия : С потерями
Размер потока : 315 Мбайт (15%)
Заголовок : DUB [License]
Язык : Russian
Default : Да
Forced : Нет

Аудио #2
Идентификатор : 3
Формат : AC-3
Формат/Информация : Audio Coding 3
Расширение режима : CM (complete main)
Параметр Endianness формата : Big
Идентификатор кодека : A_AC3
Продолжительность : 1 ч. 38 м.
Вид битрейта : Постоянный
Битрейт : 192 Кбит/сек
Каналы : 2 канала
Расположение каналов : Front: L R
Частота : 48,0 КГц
Частота кадров : 31,250 кадров/сек (1536 spf)
Битовая глубина : 16 бит
Метод сжатия : С потерями
Размер потока : 135 Мбайт (7%)
Заголовок : MVO [HDRezka Studio]
Язык : Russian
Default : Нет
Forced : Нет

Аудио #3
Идентификатор : 4
Формат : AC-3
Формат/Информация : Audio Coding 3
Расширение режима : CM (complete main)
Параметр Endianness формата : Big
Идентификатор кодека : A_AC3
Продолжительность : 1 ч. 38 м.
Вид битрейта : Постоянный
Битрейт : 448 Кбит/сек
Каналы : 6 каналов
Расположение каналов : Front: L C R, Side: L R, LFE
Частота : 48,0 КГц
Частота кадров : 31,250 кадров/сек (1536 spf)
Битовая глубина : 16 бит
Метод сжатия : С потерями
Размер потока : 315 Мбайт (15%)
Заголовок : [Original]
Язык : English
Default : Нет
Forced : Нет

Текст #1
Идентификатор : 5
Формат : UTF-8
Идентификатор кодека : S_TEXT/UTF8
Идентификатор кодека/Информация : UTF-8 Plain Text
Продолжительность : 1 ч. 31 м.
Битрейт : 46 бит/сек
Count of elements : 872
Размер потока : 31,2 Кбайт (0%)
Заголовок : Full
Язык : English
Default : Нет
Forced : Нет

Текст #2
Идентификатор : 6
Формат : UTF-8
Идентификатор кодека : S_TEXT/UTF8
Идентификатор кодека/Информация : UTF-8 Plain Text
Продолжительность : 1 ч. 34 м.
Битрейт : 52 бит/сек
Count of elements : 1047
Размер потока : 36,3 Кбайт (0%)
Заголовок : SDH
Язык : English
Default : Нет
Forced : Нет

Меню
00:00:00.000 : :Глава 01
00:05:19.694 : :Глава 02
00:11:20.136 : :Глава 03
00:18:19.681 : :Глава 04
00:23:20.690 : :Глава 05
00:29:36.816 : :Глава 06
00:35:12.151 : :Глава 07
00:43:29.023 : :Глава 08
00:48:11.930 : :Глава 09
00:55:16.730 : :Глава 10
01:01:09.791 : :Глава 11
01:08:04.121 : :Глава 12
01:12:41.939 : :Глава 13
01:19:13.790 : :Глава 14
01:23:08.817 : :Глава 15
01:30:47.108 : :Глава 16

pb.wtf



Скачать Ремнант: Всё ещё вижу тебя через торрент https://i108.fastpic.ru/big/2018/1212/c3/0a624a13eb6692e61b52b2cb9883cfc3.jpg Скачать фильм Ремнант: Всё ещё вижу тебя через торрент бесплантно в хорошем качестве Описание: Загадочная аномалия стирает границы между миром живых и мёртвых. Бесплотные призраки погибших людей внезапно вторгаются в дома и ... 10 10 4
Торрент: Зарегистрирован [2019-03-06 16:37] · скачан: 63 раз
Статус: √ проверено
Размер: 2.01 GB
Как cкачать? Как скачать Ремнант: Всё ещё вижу тебя через торрент | qTorrent

% Раздел Тема Автор DL S | L
Ultra HD (UHD: 2K, 4K, 8K) — видео сверхвысокой чёткости [ 15.21 GB ] Ремнант: Всё ещё вижу тебя / I Still See You [2018 UHD WEBRip 2160p] DUB [] + MVO [HDrezka Studio] sheker187 Скачать
1 | 0
Ultra HD (UHD: 2K, 4K, 8K) — видео сверхвысокой чёткости [ 15.16 GB ] Ремнант: Всё ещё вижу тебя / I Still See You [2018 UHD WEBRip 2160p] MVO [HDrezka Studio] + bober100 Скачать
1 | 0
Фильмы 2018 [DVDrip, WEB-DLRip, HDrip] (DUB, MVO) [ 1.46 GB ] Ремнант: Всё ещё вижу тебя / I Still See You [2018 BDRip] - [] Twi7ter Скачать
1 | 0
Фильмы [HD 720p, 1080p] (Хороший звук DUB, MVO) [ 5.37 GB ] Ремнант: Всё ещё вижу тебя / I Still See You [2018 BDRip 1080p] DUB [ R5] bober100 Скачать
1 | 0
Фильмы 2018 [DVDrip, WEB-DLRip, HDrip] (DUB, MVO) [ 1.46 GB ] Ремнант: Всё ещё вижу тебя / I Still See You [2018 BDRip] DUB [ R5] bober100 Скачать
1 | 0
Фильмы 2018 [DVDrip, WEB-DLRip, HDrip] (DUB, MVO) [ 745 MB ] Ремнант: Всё ещё вижу тебя / I Still See You [2018 HDRip] DUB [] bober100 Скачать
1 | 0
Фильмы (Blu-ray, BD-Remux, HDDVD) [ 26.8 GB ] Ремнант: Всё ещё вижу тебя / I Still See You [2018 BD Remux 1080p] DUB [] bober100 Скачать
1 | 0

28-11-2019 20:33  

Отключить всю рекламу на сайте

    Дорогой пользователь! Огромная просьба, поблагодарите релизера, оцените раздачу и оставьте свои комментарий, если Вы скачали Ремнант: Всё ещё вижу тебя через торрент бесплатно! Внесите свою лепту в развитие PiratBit!
    Комментировать посты могут только пользователи прошедшие не сложную регистрацию
    Показать сообщения:    

    Ремнант: Всё ещё вижу тебя через торрент
    Скачать бесплатно Ремнант: Всё ещё вижу тебя
    Ремнант: Всё ещё вижу тебя скачать торрент
    Ремнант: Всё ещё вижу тебя смотреть онлайн
    Cкачать фильм Ремнант: Всё ещё вижу тебя бесплатно
    Ремнант: Всё ещё вижу тебя скачать торрент в хорошем качестве
    Ремнант: Всё ещё вижу тебя смотреть онлайн бесплатно в хорошем качестве


    Вы не можете начинать темы
    Вы не можете отвечать на сообщения
    Вы не можете редактировать свои сообщения
    Вы не можете удалять свои сообщения
    Вы не можете голосовать в опросах
    Вы не можете прикреплять файлы к сообщениям
    Вы можете скачивать файлы