новый адрес
Ссылка на приватное зеркало всего за 1$. Внимание количество ограничено!!!

iTunes

1+1

iTunes

мы

WEB-DL

1

iTunes

Чернобыль

iTunes

Ральф против интернета

Лицензия

ПШазам

Лицензия

Оно 2

Лицензия

30
pack

Вам бонус

ВАЖНО

!!Акция!!

Alien_RageХит недели

RePack

Resident Evil 21

ИГРА 18+

pack

RePack

jed

!!Акция!!

Alien_Rage

RePack

fifa19

RePack

Assassins Creed: Odyssey

RePack

NEED FOR SPEED™ PAYBACK

3 сезон

9 сезон

Бесстыжие 9 сезон

Все сериалы

все сериалы на PB.wtf

RePack

FAR CRY 5
Ребята, катастрофически не хватает 1900р. для оплаты серверов за Октябрь (всвязи с блокировками трафик упал в 3 раза), 1-2р., выручайте.
  

Между рядами / In den Gängen (Томас Штубер) [2018, драма, BDRip-AVC] MVO [iTunes] pb.wtf

Между рядами через торрент pb.wtf

Раздают: 1 [ 0 KB/s ]
Размер: 2.16 GB | Добавлен: 11 мес. назад | Торрент скачан:90 раз
Скачать  

12-12-2018 08:34 Между рядами Скачать торрент  

Между рядами / In den Gängen Год выпуска: 2018
Страна: Германия
Жанр: драма
Продолжительность: 02:00:10
Перевод: Профессиональный (многоголосый) | iTunes
Субтитры: Английские (полные)

Режиссер: Томас Штубер

rating

В ролях:

Сандра Хюллер, Франц Роговский, Петер Курт, Хеннинг Пекер, Рамона Кюнце-Либнов, Матиас Бреннер, Герди Цинт, Клеменс Мейер, Андреас Леупольд, Майкл Спехт

Описание:

Кристиан - новичок в дружной семье работников гипермаркета. В мире бесконечных стеллажей Кристиан встречает Марион из отдела сладостей. Между ними пробегает искра, а кофейный автомат превращается в место для робких встреч. Однако Марион замужем, а Кристиан слишком застенчив, чтобы сделать первый шаг.

Качество: BDRip-AVC
Формат: MKV

Видео: 956x576 (5:3), 25,000 fps, x264 ~2 187 kbps avg, 0.159 bit/pixel
Аудио: 48 kHz, AC3 Dolby Digital, 3/2 (L,C,R,l,r) + LFE ch, ~384.00 kbps avg | RUS (iTunes)
скриншот  скриншот  скриншот  скриншот  скриншот  

Общее
Уникальный идентификатор : 78515499523095448280128769956624293638 (0x3B11890071550B914525CE9206B55F06)
Полное имя : F:OlLanDGroupIn.den.Gangen.2018.BDRip(AVC).OlLanDGroup.mkv
Формат : Matroska
Версия формата : Version 4 / Version 2
Размер файла : 2,16 Гбайт
Продолжительность : 2 ч. 0 м.
Общий поток : 2571 Кбит/сек
Название фильма : In.den.Gangen.2018 #TorpedoUK#
Дата кодирования : UTC 2018-12-12 07:54:20
Программа кодирования : mkvmerge v29.0.0 ('Like It Or Not') 64-bit
Библиотека кодирования : libebml v1.3.6 + libmatroska v1.4.9

Видео
Идентификатор : 1
Формат : AVC
Формат/Информация : Advanced Video Codec
Профиль формата : High@L4.1
Параметр CABAC формата : Да
Параметр ReFrames формата : 10 кадров
Идентификатор кодека : V_MPEG4/ISO/AVC
Продолжительность : 2 ч. 0 м.
Битрейт : 2187 Кбит/сек
Ширина : 956 пикселей
Высота : 576 пикселей
Соотношение сторон : 5:3
Режим частоты кадров : Постоянный
Частота кадров : 25,000 кадров/сек
Цветовое пространство : YUV
Субдискретизация насыщенности : 4:2:0
Битовая глубина : 8 бит
Тип развёртки : Прогрессивная
Бит/(Пиксели*Кадры) : 0.159
Размер потока : 1,83 Гбайт (85%)
Библиотека кодирования : x264 core 146 r2538 121396c
Настройки программы : cabac=1 / ref=10 / deblock=1:-2:-3 / analyse=0x3:0x113 / me=umh / subme=11 / psy=1 / psy_rd=0.95:0.06 / mixed_ref=1 / me_range=48 / chroma_me=1 / trellis=2 / 8x8dct=1 / cqm=0 / deadzone=21,11 / fast_pskip=1 / chroma_qp_offset=-3 / threads=6 / lookahead_threads=1 / sliced_threads=0 / nr=0 / decimate=1 / interlaced=0 / bluray_compat=0 / constrained_intra=0 / bframes=11 / b_pyramid=2 / b_adapt=2 / b_bias=0 / direct=3 / weightb=1 / open_gop=0 / weightp=2 / keyint=240 / keyint_min=24 / scenecut=40 / intra_refresh=0 / rc_lookahead=40 / rc=2pass / mbtree=0 / bitrate=2187 / ratetol=1.0 / qcomp=0.60 / qpmin=0 / qpmax=69 / qpstep=4 / cplxblur=20.0 / qblur=0.5 / vbv_maxrate=50000 / vbv_bufsize=62500 / nal_hrd=none / filler=0 / ip_ratio=1.40 / pb_ratio=1.30 / aq=1:1.00
Язык : English
Default : Да
Forced : Нет

Аудио
Идентификатор : 2
Формат : AC-3
Формат/Информация : Audio Coding 3
Расширение режима : CM (complete main)
Параметр Endianness формата : Big
Идентификатор кодека : A_AC3
Продолжительность : 2 ч. 0 м.
Вид битрейта : Постоянный
Битрейт : 384 Кбит/сек
Каналы : 6 каналов
Расположение каналов : Front: L C R, Side: L R, LFE
Частота : 48,0 КГц
Частота кадров : 31,250 кадров/сек (1536 spf)
Битовая глубина : 16 бит
Метод сжатия : С потерями
Размер потока : 330 Мбайт (15%)
Заголовок : MVO [iTunes]
Язык : Russian
Default : Да
Forced : Нет

Текст
Идентификатор : 3
Формат : UTF-8
Идентификатор кодека : S_TEXT/UTF8
Идентификатор кодека/Информация : UTF-8 Plain Text
Продолжительность : 1 ч. 57 м.
Битрейт : 20 бит/сек
Count of elements : 685
Размер потока : 18,0 Кбайт (0%)
Заголовок : Full
Язык : English
Default : Нет
Forced : Нет

Меню
00:00:00.000 : de:Chapter 1
00:02:44.559 : de:Chapter 2
00:15:17.360 : de:Chapter 3
00:28:19.960 : de:Chapter 4
00:40:07.760 : de:Chapter 5
00:53:39.120 : de:Chapter 6
01:06:50.800 : de:Chapter 7
01:17:20.120 : de:Chapter 8
01:27:04.440 : de:Chapter 9
01:35:31.880 : de:Chapter 10
01:52:25.720 : de:Chapter 11
01:55:00.240 : de:Chapter 12
02:00:10.160 : de:Chapter 13

pb.wtf



Скачать Между рядами через торрент http://img14.lostpic.net/2018/12/12/e808c2e1bbf4c6b8a81224936a0176e0.jpg Скачать фильм Между рядами через торрент бесплантно в хорошем качестве Описание: Кристиан - новичок в дружной семье работников гипермаркета. В мире бесконечных стеллажей Кристиан встречает Марион из отдела ... 10 10 3
Торрент: Зарегистрирован [2018-12-12 08:34] · скачан: 90 раз
Статус: √ проверено
Размер: 2.16 GB
Как cкачать? Как скачать Между рядами через торрент | qTorrent

% Раздел Тема Автор DL S | L
Фильмы 2018 [DVDrip, WEB-DLRip, HDrip] (DUB, MVO) [ 1.46 GB ] Между рядами / In den Gängen [2018 BDRip] MVO Twi7ter Скачать
3 | 0
Фильмы [HD 720p, 1080p] (Хороший звук DUB, MVO) [ 9.21 GB ] Между рядами / In den Gängen [2018 BDRip 1080p] MVO bober100 Скачать
1 | 0
Фильмы 2018 [DVDrip, WEB-DLRip, HDrip] (DUB, MVO) [ 2.12 GB ] Между рядами / In den Gängen [2018 BDRip] MVO bober100 Скачать
1 | 0
Фильмы 2018 [DVDrip, WEB-DLRip, HDrip] (DUB, MVO) [ 1.41 GB ] Между рядами / In den Gängen [2018 BDRip] MVO bober100 Скачать
2 | 0
Фильмы [HD 720p, 1080p] (Хороший звук DUB, MVO) [ 5.64 GB ] Между рядами / In den Gängen [2018 BDRip 720p] MVO bober100 Скачать
1 | 0
Фильмы (Blu-ray, BD-Remux, HDDVD) [ 16.66 GB ] Между рядами / In den Gängen [2018 BD Remux 1080p] MVO bober100 Скачать
1 | 0

28-11-2019 20:33  

Отключить всю рекламу на сайте

    Дорогой пользователь! Огромная просьба, поблагодарите релизера, оцените раздачу и оставьте свои комментарий, если Вы скачали Между рядами через торрент бесплатно! Внесите свою лепту в развитие PiratBit!
    Комментировать посты могут только пользователи прошедшие не сложную регистрацию
    Показать сообщения:    

    Между рядами через торрент
    Скачать бесплатно Между рядами
    Между рядами скачать торрент
    Между рядами смотреть онлайн
    Cкачать фильм Между рядами бесплатно
    Между рядами скачать торрент в хорошем качестве
    Между рядами смотреть онлайн бесплатно в хорошем качестве


    Вы не можете начинать темы
    Вы не можете отвечать на сообщения
    Вы не можете редактировать свои сообщения
    Вы не можете удалять свои сообщения
    Вы не можете голосовать в опросах
    Вы не можете прикреплять файлы к сообщениям
    Вы можете скачивать файлы