Ссылка на приватное зеркало всего за 1$. Внимание количество ограничено!!!

OK

1+1

iTunes

мы

OK

1

WEB-DLRip

Джокер

Пифагор

Ведьмак / The Witcher сериал

iTunes

ПШазам

ОК

Оно 2

iTunes

30
pack

Вам бонус

ВАЖНО

!!Акция!!

Alien_RageХит недели

RePack

Resident Evil 21

ИГРА 18+

pack

RePack

jed

RePack

fifa19

RePack

Assassins Creed: Odyssey

RePack

NEED FOR SPEED™ PAYBACK

4 сезон

9 сезон

Бесстыжие 9 сезон

Все сериалы

все сериалы на PB.wtf

RePack

FAR CRY 5
  

Очень Чудное Рождество / A Very Nutty Christmas (Колин Тейс) [2018, Мелодрама, комедия, WEB-DL 720p] MVO ["Синема УС"] pb.wtf

Очень Чудное Рождество через торрент pb.wtf

Размер: 3.03 GB | Добавлен: 1 год 1 мес. назад | Торрент скачан:42 раза
Скачать  

12-12-2018 08:48 Очень Чудное Рождество Скачать торрент  

Очень Чудное Рождество / A Very Nutty ChristmasГод выпуска: 2018
Страна: США
Жанр: Мелодрама, комедия
Продолжительность: 01:28:42
Перевод: Любительский (многоголосый) | "Синема УС"
Субтитры: отсутствуют

Режиссер: Колин Тейс

rating

В ролях:

Мелисса Джоан Харт, Бэрри Уотсон, Ричард Рили, Марисса Джэрет Винокур, Райан Калтагорин, Ризван Манжи, Кэти Маккарти, Джоэнна Ховард, Майк Шариц, Билл Сальваторе

Описание:

Трудоголик-Кейт, работающая в пекарне, махнула рукой на Рождество, особенно в этом году, когда ее бросил парень, а ей необходимо выполнить заказ на 12000 печений. Однако благодаря дару волшебного Щелкунчика, который превращается в настоящего живого мужчину, некогда циничная Кейт осознает всю магию и великолепие Рождества и любви.

Качество: WEB-DL 720p
Формат: MKV

Видео: 4 508 kb/s, 1280x720
Аудио#1: Русский, (AC3, 2 ch, 384 Кбит/с)
скриншот  скриншот  скриншот  

Общее
Уникальный идентификатор : 226643477398477769897891739582052962660 (0xAA81F22BE3551FF9A457DC790D701164)
Полное имя : E:\торреннты\A.Very.Nutty.Christmas.2O18.P.WEB-DL.72Op_KOSHARA.mkv
Формат : Matroska
Версия формата : Version 2
Размер файла : 3,03 Гбайт
Продолжительность : 1 ч. 28 м.
Режим общего битрейта : Переменный
Общий поток : 4894 Кбит/сек
Дата кодирования : UTC 2018-12-11 18:24:33
Программа кодирования : mkvmerge v8.3.0 ('Over the Horizon') 64bit
Библиотека кодирования : libebml v1.3.1 + libmatroska v1.4.2

Видео
Идентификатор : 1
Формат : AVC
Формат/Информация : Advanced Video Codec
Профиль формата : High@L4.1
Настройки формата : CABAC / 4 Ref Frames
Параметр CABAC формата : Да
Параметр RefFrames формата : 4 кадра
Идентификатор кодека : V_MPEG4/ISO/AVC
Продолжительность : 1 ч. 28 м.
Вид битрейта : Переменный
Битрейт : 4508 Кбит/сек
Максимальный битрейт : 5000 Кбит/сек
Ширина : 1280 пикселей
Высота : 720 пикселей
Соотношение сторон : 16:9
Режим частоты кадров : Постоянный
Частота кадров : 23,976 (24000/1001) кадра/сек
Стандарт вещания : Component
Цветовое пространство : YUV
Субдискретизация насыщенности : 4:2:0
Битовая глубина : 8 бит
Тип развёртки : Прогрессивная
Бит/(Пиксели*Кадры) : 0.200
Размер потока : 2,73 Гбайт (90%)
Default : Да
Forced : Нет
Цветовой диапазон : Limited
Основные цвета : BT.709
Характеристики трансфера : BT.709
Коэффициенты матрицы : BT.709

Аудио
Идентификатор : 2
Формат : AC-3
Формат/Информация : Audio Coding 3
Идентификатор кодека : A_AC3
Продолжительность : 1 ч. 28 м.
Вид битрейта : Постоянный
Битрейт : 384 Кбит/сек
Каналы : 2 канала
Расположение каналов : Front: L R
Частота : 48,0 КГц
Частота кадров : 31,250 кадров/сек (1536 SPF)
Битовая глубина : 16 бит
Метод сжатия : С потерями
Размер потока : 244 Мбайт (8%)
ServiceKind/String : Complete Main
Default : Да
Forced : Нет

pb.wtf



Скачать Очень Чудное Рождество через торрент https://b.radikal.ru/b04/1812/e5/6698d337bc8f.jpg Скачать фильм Очень Чудное Рождество через торрент бесплантно в хорошем качестве Описание: Трудоголик-Кейт, работающая в пекарне, махнула рукой на Рождество, особенно в этом году, когда ее бросил парень, а ей необходимо ... 10 10 2
Торрент: Зарегистрирован [2018-12-12 08:48] · скачан: 42 раз
Статус: T временная
Размер: 3.03 GB
Как cкачать? Как скачать Очень Чудное Рождество через торрент | qTorrent

% Раздел Тема Автор DL S | L
T Фильмы (мультфильмы) cо спонсором показа (Новинки AVI/MKV) [ 1.37 GB ] Очень Чудное Рождество / A Very Nutty Christmas [2018 Мело WEB-DLRip] MVO ["Синема УС"] bober100 Скачать
2 | 0

28-11-2019 20:33  

Отключить всю рекламу на сайте

    Дорогой пользователь! Огромная просьба, поблагодарите релизера, оцените раздачу и оставьте свои комментарий, если Вы скачали Очень Чудное Рождество через торрент бесплатно! Внесите свою лепту в развитие PiratBit!
    Комментировать посты могут только пользователи прошедшие не сложную регистрацию
    Показать сообщения:    

    Очень Чудное Рождество через торрент
    Скачать бесплатно Очень Чудное Рождество
    Очень Чудное Рождество скачать торрент
    Очень Чудное Рождество смотреть онлайн
    Cкачать фильм Очень Чудное Рождество бесплатно
    Очень Чудное Рождество скачать торрент в хорошем качестве
    Очень Чудное Рождество смотреть онлайн бесплатно в хорошем качестве


    Вы не можете начинать темы
    Вы не можете отвечать на сообщения
    Вы не можете редактировать свои сообщения
    Вы не можете удалять свои сообщения
    Вы не можете голосовать в опросах
    Вы не можете прикреплять файлы к сообщениям
    Вы можете скачивать файлы