новый адрес
Ссылка на приватное зеркало всего за 1$. Внимание количество ограничено!!!

iTunes

1+1

iTunes

мы

iTunes

1

iTunes

Чернобыль

iTunes

Ральф против интернета

Лицензия

ПШазам

Лицензия

Оно 2

Лицензия

30
pack

Вам бонус

ВАЖНО

!!Акция!!

Alien_RageХит недели

RePack

Resident Evil 21

ИГРА 18+

pack

RePack

jed

!!Акция!!

Alien_Rage

RePack

fifa19

RePack

Assassins Creed: Odyssey

RePack

NEED FOR SPEED™ PAYBACK

3 сезон

9 сезон

Бесстыжие 9 сезон

Все сериалы

все сериалы на PB.wtf

RePack

FAR CRY 5
Ребята, катастрофически не хватает 1900р. для оплаты серверов за Октябрь (всвязи с блокировками трафик упал в 3 раза), 1-2р., выручайте.
  

Человек на Луне / First Man (Дэмьен Шазелл) [2018 г., Драма, биография, история, WEB-DLRip] Дубляж [iTunes] pb.wtf

Человек на Луне через торрент pb.wtf

Раздают: 8 [ 0 KB/s ]
Размер: 1.46 GB | Добавлен: 11 мес. назад | Торрент скачан:2003 раза
Скачать  

13-12-2018 03:05 Человек на Луне Скачать торрент  

Человек на Луне / First Man«Самая опасная миссия в истории»

Год выпуска: 2018
Страна: США
Жанр: Драма, биография, история
Продолжительность: 02:21:00
Перевод: Дублированный | iTunes
Субтитры: Русские (форсированные [хардсаб])
Режиссер: Дэмьен Шазелл
rating
В ролях:
Клер Фой, Райан Гослинг, Пабло Шрайбер, Кристофер Эбботт, Итэн Эмбри, Киаран Хайндс, Джейсон Кларк, Кайл Чандлер, Кори Столл, Шей Уигэм
Описание:
Судьба любит смельчаков, а Нил Армстронг однозначно принадлежит к их числу. Весь мир знает его имя, но мало кому известно, какой ценой астронавту дался маленький шаг, ставший огромным скачком для всего человечества.
Качество: WEB-DLRip
Формат: AVI
Видео: XviD, 720x304, 23.976 fps, 1280 kbps
Аудио#1: 48 kHz, AC3, 2ch, 192 Kbps | iTunes | RUS |

General
Complete name : H:\First.Man.2018.WEB-DLRip.1.46Gb.MegaPeer.avi
Format : AVI
Format/Info : Audio Video Interleave
File size : 1.46 GiB
Duration : 2 h 21 min
Overall bit rate : 1 482 kb/s
Writing application : VirtualDubMod 1.5.10.3 | www.virtualdub-fr.org || (build 2550/release)
Writing library : VirtualDubMod build 2550/release

Video
ID : 0
Format : MPEG-4 Visual
Format profile : Advanced Simple@L5
Format settings, BVOP : 1
Format settings, QPel : No
Format settings, GMC : No warppoints
Format settings, Matrix : Custom
Codec ID : XVID
Codec ID/Hint : XviD
Duration : 2 h 21 min
Bit rate : 1 281 kb/s
Width : 720 pixels
Height : 304 pixels
Display aspect ratio : 2.35:1
Frame rate : 23.976 (24000/1001) FPS
Color space : YUV
Chroma subsampling : 4:2:0
Bit depth : 8 bits
Scan type : Progressive
Compression mode : Lossy
Bits/(Pixel*Frame) : 0.244
Stream size : 1.26 GiB (86%)
Writing library : XviD 73

Audio
ID : 1
Format : AC-3
Format/Info : Audio Coding 3
Format settings, Endianness : Big
Codec ID : 2000
Duration : 2 h 21 min
Bit rate mode : Constant
Bit rate : 192 kb/s
Channel(s) : 2 channels
Channel positions : Front: L R
Sampling rate : 48.0 kHz
Frame rate : 31.250 FPS (1536 SPF)
Bit depth : 16 bits
Compression mode : Lossy
Stream size : 194 MiB (13%)
Alignment : Split accross interleaves
Interleave, duration : 42 ms (1.00 video frame)
Interleave, preload duration : 500 ms
Service kind : Complete Main
скриншот   скриншот   скриншот   скриншот  
pb.wtf



Скачать Человек на Луне через торрент https://b.radikal.ru/b01/1812/4a/a8dc4e9e9ddf.png Скачать фильм Человек на Луне через торрент бесплантно в хорошем качестве Описание: Судьба любит смельчаков, а Нил Армстронг однозначно принадлежит к их числу. Весь мир знает его имя, но мало кому известно, какой ... 9.5 10 40
Info! Золотая раздача, скачанное не засчитывается.
Торрент: Зарегистрирован [2018-12-13 03:05] · скачан: 2 003 раз
Статус: √ проверено
Размер: 1.46 GB
Как cкачать? Как скачать Человек на Луне через торрент | qTorrent

% Раздел Тема Автор DL S | L
Фильмы (Blu-ray, BD-Remux, HDDVD) [ 44.74 GB ] Человек на Луне / First Man [2018 биография история Blu-ray EUR 1080p] [IMAX Edition] DUB [] bober100 Скачать
2 | 0
Фильмы 2018 [DVDrip, WEB-DLRip, HDrip] (DUB, MVO) [ 1.46 GB ] Человек на Луне / First Man [2018 биография история BDRip] - [] Twi7ter Скачать
5 | 0
Фильмы 2018 [DVDrip, WEB-DLRip, HDrip] (DUB, MVO) [ 4.07 GB ] Человек на Луне / First Man [2018 биография история BDRip-AVC] - ExKinoRay Enigma2010 Скачать
2 | 0
Фильмы [HD 720p, 1080p] (Хороший звук DUB, MVO) [ 7.72 GB ] Человек на Луне / First Man [2018 биография история BDRip-HEVC 1080p ] [IMAX Edition] DUB [] bober100 Скачать
1 | 0
Фильмы [HD 720p, 1080p] (Хороший звук DUB, MVO) [ 7.46 GB ] Человек на Луне / First Man [2018 биография история BDRip 720p] [IMAX Edition] DUB [] bober100 Скачать
1 | 0
Фильмы [HD 720p, 1080p] (Хороший звук DUB, MVO) [ 14.54 GB ] Человек на Луне / First Man [2018 биография история BDRip 1080p] [IMAX Edition] DUB [] bober100 Скачать
1 | 0
Фильмы (Blu-ray, BD-Remux, HDDVD) [ 32.4 GB ] Человек на Луне / First Man [2018 биография история BD Remux 1080p] [IMAX Edition] DUB [] bober100 Скачать
1 | 0
Отключить всю рекламу на сайте

13-12-2018 04:06 Человек на Луне Скачать торрент  

Жанр неправильно указан , фантастика надо ставить)pb.wtf



13-12-2018 10:05 Человек на Луне Скачать торрент  

А был ли мальчик...............?pb.wtf



15-12-2018 17:29 Человек на Луне Скачать торрент  

moogle писал(а):

Жанр неправильно указан , фантастика надо ставить)

Почему фантастика ? Американцы утверждают ,что они были на луне , поэтому история , а не фантастика .pb.wtf



16-12-2018 13:44 Человек на Луне Скачать торрент  

Как фильм то?pb.wtf



25-12-2018 16:33 Человек на Луне Скачать торрент  

rusGREEK писал(а):

Как фильм то?

страшная скукотища, затянутость, и везде гладко выбритое лицо актёра, исполняющего роль Армстронга - ночью ли, днём, вечером, в скафандре, на луне...pb.wtf



    Дорогой пользователь! Огромная просьба, поблагодарите релизера, оцените раздачу и оставьте свои комментарий, если Вы скачали Человек на Луне через торрент бесплатно! Внесите свою лепту в развитие PiratBit!
    Комментировать посты могут только пользователи прошедшие не сложную регистрацию
    Показать сообщения:    

    Человек на Луне через торрент
    Скачать бесплатно Человек на Луне
    Человек на Луне скачать торрент
    Человек на Луне смотреть онлайн
    Cкачать фильм Человек на Луне бесплатно
    Человек на Луне скачать торрент в хорошем качестве
    Человек на Луне смотреть онлайн бесплатно в хорошем качестве


    Вы не можете начинать темы
    Вы не можете отвечать на сообщения
    Вы не можете редактировать свои сообщения
    Вы не можете удалять свои сообщения
    Вы не можете голосовать в опросах
    Вы не можете прикреплять файлы к сообщениям
    Вы можете скачивать файлы