Ссылка на приватное зеркало всего за 1$. Внимание количество ограничено!!!

OK

1+1

iTunes

мы

OK

1

WEB-DLRip

Джокер

Пифагор

Ведьмак / The Witcher сериал

iTunes

ПШазам

ОК

Оно 2

iTunes

30
pack

Вам бонус

ВАЖНО

!!Акция!!

Alien_RageХит недели

RePack

Resident Evil 21

ИГРА 18+

pack

RePack

jed

RePack

fifa19

RePack

Assassins Creed: Odyssey

RePack

NEED FOR SPEED™ PAYBACK

4 сезон

9 сезон

Бесстыжие 9 сезон

Все сериалы

все сериалы на PB.wtf

RePack

FAR CRY 5
  

Легенда о трёх царствах / San guo sha huan (Люй Кэцзин) [2018, боевик, фэнтези, мелодрама, TC 72Op] MVO [КОЛОБОК] pb.wtf

Легенда о трёх царствах через торрент pb.wtf

Размер: 2.99 GB | Добавлен: 1 год 1 мес. назад | Торрент скачан:14 раз
Скачать  

13-12-2018 07:36 Легенда о трёх царствах Скачать торрент  

Легенда о трёх царствах / San guo sha huanГод выпуска: 2018
Страна: Китай
Жанр: боевик, фэнтези, мелодрама
Продолжительность: 01:27:31
Перевод: Любительский (многоголосый) | КОЛОБОК
Субтитры: вшитые

Режиссер: Люй Кэцзин



В ролях:

Экин Чэн, Юй Жунгуан, Майкл Це, Цзя Цин, Джерри Лам

Описание:

Боевик, основанный на карточной китайской игре "Легенды о Троецарствии", чем-то напоминающей нашу "Мафию".

Качество: TC 72Op
Формат: MKV

Видео: h.264, 4 511 Кбит/с, 1280x528
Аудио#1: Русский, (AC3, 2 ch, 384 Кбит/с)
скриншот  скриншот  скриншот  

Общее
Уникальный идентификатор : 188883383214295774673897267640616042329 (0x8E199DCA9E4171BCA2F68C26A8033F59)
Полное имя : E:\торреннты\Legends.of.the.Three.Kingdoms.2018.Pk.Telecine.72Op.mkv
Формат : Matroska
Версия формата : Version 2
Размер файла : 2,99 Гбайт
Продолжительность : 1 ч. 27 м.
Режим общего битрейта : Переменный
Общий поток : 4897 Кбит/сек
Дата кодирования : UTC 2018-12-12 20:57:39
Программа кодирования : mkvmerge v8.3.0 ('Over the Horizon') 64bit
Библиотека кодирования : libebml v1.3.1 + libmatroska v1.4.2

Видео
Идентификатор : 1
Формат : AVC
Формат/Информация : Advanced Video Codec
Профиль формата : High@L4.1
Настройки формата : CABAC / 4 Ref Frames
Параметр CABAC формата : Да
Параметр RefFrames формата : 4 кадра
Идентификатор кодека : V_MPEG4/ISO/AVC
Продолжительность : 1 ч. 27 м.
Вид битрейта : Переменный
Битрейт : 4511 Кбит/сек
Максимальный битрейт : 5000 Кбит/сек
Ширина : 1280 пикселей
Высота : 528 пикселей
Соотношение сторон : 2,40:1
Режим частоты кадров : Постоянный
Частота кадров : 23,976 (24000/1001) кадра/сек
Стандарт вещания : Component
Цветовое пространство : YUV
Субдискретизация насыщенности : 4:2:0
Битовая глубина : 8 бит
Тип развёртки : Прогрессивная
Бит/(Пиксели*Кадры) : 0.272
Размер потока : 2,70 Гбайт (90%)
Default : Да
Forced : Нет
Цветовой диапазон : Limited
Основные цвета : BT.709
Характеристики трансфера : BT.709
Коэффициенты матрицы : BT.709

Аудио
Идентификатор : 2
Формат : AC-3
Формат/Информация : Audio Coding 3
Идентификатор кодека : A_AC3
Продолжительность : 1 ч. 27 м.
Вид битрейта : Постоянный
Битрейт : 384 Кбит/сек
Каналы : 2 канала
Расположение каналов : Front: L R
Частота : 48,0 КГц
Частота кадров : 31,250 кадров/сек (1536 SPF)
Битовая глубина : 16 бит
Метод сжатия : С потерями
Размер потока : 240 Мбайт (8%)
ServiceKind/String : Complete Main
Default : Да
Forced : Нет

pb.wtf



Скачать Легенда о трёх царствах через торрент https://c.radikal.ru/c13/1812/24/afb01e38f934.jpg Скачать фильм Легенда о трёх царствах через торрент бесплантно в хорошем качестве Описание: Боевик, основанный на карточной китайской игре "Легенды о Троецарствии", чем-то напоминающей нашу ... 10 10 2
Торрент: Зарегистрирован [2018-12-13 07:36] · скачан: 14 раз
Статус: T временная
Размер: 2.99 GB
Как cкачать? Как скачать Легенда о трёх царствах через торрент | qTorrent

% Раздел Тема Автор DL S | L
T Фильмы (мультфильмы) cо спонсором показа (Новинки AVI/MKV) [ 1.37 GB ] Легенда о трёх царствах / San guo sha huan [2018 TC] MVO [КОЛОБОК] bober100 Скачать
1 | 0

28-11-2019 20:33  

Отключить всю рекламу на сайте

    Дорогой пользователь! Огромная просьба, поблагодарите релизера, оцените раздачу и оставьте свои комментарий, если Вы скачали Легенда о трёх царствах через торрент бесплатно! Внесите свою лепту в развитие PiratBit!
    Комментировать посты могут только пользователи прошедшие не сложную регистрацию
    Показать сообщения:    

    Легенда о трёх царствах через торрент
    Скачать бесплатно Легенда о трёх царствах
    Легенда о трёх царствах скачать торрент
    Легенда о трёх царствах смотреть онлайн
    Cкачать фильм Легенда о трёх царствах бесплатно
    Легенда о трёх царствах скачать торрент в хорошем качестве
    Легенда о трёх царствах смотреть онлайн бесплатно в хорошем качестве


    Вы не можете начинать темы
    Вы не можете отвечать на сообщения
    Вы не можете редактировать свои сообщения
    Вы не можете удалять свои сообщения
    Вы не можете голосовать в опросах
    Вы не можете прикреплять файлы к сообщениям
    Вы можете скачивать файлы