Ссылка на приватное зеркало всего за 1$. Внимание количество ограничено!!!

iTunes

1+1

iTunes

мы

WEB-DL

1

iTunes

Чернобыль

iTunes

Ральф против интернета

Лицензия

ПШазам

Лицензия

Оно 2

Лицензия

30
pack

Вам бонус

ВАЖНО

!!Акция!!

Alien_RageХит недели

RePack

Resident Evil 21

ИГРА 18+

pack

RePack

jed

!!Акция!!

Alien_Rage

RePack

fifa19

RePack

Assassins Creed: Odyssey

RePack

NEED FOR SPEED™ PAYBACK

3 сезон

9 сезон

Бесстыжие 9 сезон

Все сериалы

все сериалы на PB.wtf

RePack

FAR CRY 5
Ребята, катастрофически не хватает 1900р. для оплаты серверов за Октябрь (всвязи с блокировками трафик упал в 3 раза), 1-2р., выручайте.
  

Человек на Луне / First Man (Дэмьен Шазелл) [2018 г., Драма, биография, история, WEB-DLRip-AVC] Дубляж [iTunes] pb.wtf

Скачать  

13-12-2018 08:00 Человек на Луне Скачать торрент  

Человек на Луне / First Man«Самая опасная миссия в истории»

Год выпуска: 2018
Страна: США
Жанр: Драма, биография, история
Продолжительность: 02:21:00
Перевод: Дублированный | iTunes
Субтитры: Русские (форсированные [хардсаб])
Режиссер: Дэмьен Шазелл
rating
В ролях:
Клер Фой, Райан Гослинг, Пабло Шрайбер, Кристофер Эбботт, Итэн Эмбри, Киаран Хайндс, Джейсон Кларк, Кайл Чандлер, Кори Столл, Шей Уигэм
Описание:
Судьба любит смельчаков, а Нил Армстронг однозначно принадлежит к их числу. Весь мир знает его имя, но мало кому известно, какой ценой астронавту дался маленький шаг, ставший огромным скачком для всего человечества.
Качество: WEB-DLRip-AVC
Формат: MKV
Видео: 1024x426 (2.40:1), 23,976 fps, x264 ~1 811 kbps avg, 0.173 bit/pixel
Аудио#1: 48 kHz, AC3 Dolby Digital, 3/2 (L,C,R,l,r) + LFE ch, ~384.00 kbps avg | RUS (iTunes)
Навигация по главам: Есть

Общее
Уникальный идентификатор : 328217579608232290948430770921972528538 (0xF6EC680F58E1B6294A702C16BF4D759A)
Полное имя : F:OlLanDGroupFirst.Man.2018.WEB-DLRip(AVC).OlLanDGroup.mkv
Формат : Matroska
Версия формата : Version 4 / Version 2
Размер файла : 2,16 Гбайт
Продолжительность : 2 ч. 21 м.
Общий поток : 2197 Кбит/сек
Название фильма : FIRST_MAN_2018_WEB-DL_1080p-BLUEBIRD
Дата кодирования : UTC 2018-12-13 07:32:13
Программа кодирования : mkvmerge v29.0.0 ('Like It Or Not') 64-bit
Библиотека кодирования : libebml v1.3.6 + libmatroska v1.4.9
Обложка : Yes
Attachments : cover.png

Видео
Идентификатор : 1
Формат : AVC
Формат/Информация : Advanced Video Codec
Профиль формата : High@L4.1
Параметр CABAC формата : Да
Параметр ReFrames формата : 10 кадров
Идентификатор кодека : V_MPEG4/ISO/AVC
Продолжительность : 2 ч. 21 м.
Битрейт : 1811 Кбит/сек
Ширина : 1024 пикселя
Высота : 426 пикселей
Соотношение сторон : 2,40:1
Режим частоты кадров : Постоянный
Частота кадров : 23,976 (24000/1001) кадра/сек
Цветовое пространство : YUV
Субдискретизация насыщенности : 4:2:0
Битовая глубина : 8 бит
Тип развёртки : Прогрессивная
Бит/(Пиксели*Кадры) : 0.173
Размер потока : 1,78 Гбайт (82%)
Библиотека кодирования : x264 core 146 r2538 121396c
Настройки программы : cabac=1 / ref=10 / deblock=1:-2:-3 / analyse=0x3:0x113 / me=umh / subme=10 / psy=1 / psy_rd=0.95:0.07 / mixed_ref=1 / me_range=48 / chroma_me=1 / trellis=2 / 8x8dct=1 / cqm=0 / deadzone=21,11 / fast_pskip=1 / chroma_qp_offset=-3 / threads=6 / lookahead_threads=1 / sliced_threads=0 / nr=0 / decimate=1 / interlaced=0 / bluray_compat=0 / constrained_intra=0 / bframes=11 / b_pyramid=2 / b_adapt=2 / b_bias=0 / direct=3 / weightb=1 / open_gop=0 / weightp=2 / keyint=240 / keyint_min=23 / scenecut=40 / intra_refresh=0 / rc_lookahead=40 / rc=2pass / mbtree=0 / bitrate=1811 / ratetol=1.0 / qcomp=0.60 / qpmin=0 / qpmax=69 / qpstep=4 / cplxblur=20.0 / qblur=0.5 / vbv_maxrate=50000 / vbv_bufsize=62500 / nal_hrd=none / filler=0 / ip_ratio=1.40 / pb_ratio=1.30 / aq=1:1.00
Язык : English
Default : Да
Forced : Нет

Аудио
Идентификатор : 2
Формат : AC-3
Формат/Информация : Audio Coding 3
Расширение режима : CM (complete main)
Параметр Endianness формата : Big
Идентификатор кодека : A_AC3
Продолжительность : 2 ч. 21 м.
Вид битрейта : Постоянный
Битрейт : 384 Кбит/сек
Каналы : 6 каналов
Расположение каналов : Front: L C R, Side: L R, LFE
Частота : 48,0 КГц
Частота кадров : 31,250 кадров/сек (1536 spf)
Битовая глубина : 16 бит
Метод сжатия : С потерями
Размер потока : 387 Мбайт (17%)
Заголовок : DUB [iTunes]
Язык : Russian
Default : Да
Forced : Нет

Меню
00:00:00.000 : en:1
00:07:21.441 : en:2
00:13:36.983 : en:3
00:19:54.193 : en:4
00:26:00.726 : en:5
00:31:31.139 : en:6
00:40:18.249 : en:7
00:49:58.704 : en:8
01:00:03.934 : en:9
01:05:43.398 : en:10
01:11:06.721 : en:11
01:15:13.968 : en:12
01:21:33.889 : en:13
01:30:36.306 : en:14
01:39:01.728 : en:15
01:48:59.492 : en:16
01:54:45.421 : en:17
02:00:15.918 : en:18
02:09:56.707 : en:19
02:14:03.745 : en:20
скриншот   скриншот   скриншот   скриншот  
pb.wtf



Торрент не зареган: Не зарегистрирован ||
Добавлен: 2018-12-13 07:58
Скачано: 0 раз
% Раздел Тема Автор DL S | L
Фильмы (Blu-ray, BD-Remux, HDDVD) [ 44.74 GB ] Человек на Луне / First Man [2018 биография история Blu-ray EUR 1080p] [IMAX Edition] DUB [] bober100 Скачать
2 | 0
Фильмы 2018 [DVDrip, WEB-DLRip, HDrip] (DUB, MVO) [ 1.46 GB ] Человек на Луне / First Man [2018 биография история BDRip] - [] Twi7ter Скачать
6 | 1
Фильмы 2018 [DVDrip, WEB-DLRip, HDrip] (DUB, MVO) [ 4.07 GB ] Человек на Луне / First Man [2018 биография история BDRip-AVC] - ExKinoRay Enigma2010 Скачать
4 | 0
Фильмы [HD 720p, 1080p] (Хороший звук DUB, MVO) [ 7.72 GB ] Человек на Луне / First Man [2018 биография история BDRip-HEVC 1080p ] [IMAX Edition] DUB [] bober100 Скачать
3 | 0
Фильмы [HD 720p, 1080p] (Хороший звук DUB, MVO) [ 7.46 GB ] Человек на Луне / First Man [2018 биография история BDRip 720p] [IMAX Edition] DUB [] bober100 Скачать
1 | 0
Фильмы [HD 720p, 1080p] (Хороший звук DUB, MVO) [ 14.54 GB ] Человек на Луне / First Man [2018 биография история BDRip 1080p] [IMAX Edition] DUB [] bober100 Скачать
1 | 0
Фильмы (Blu-ray, BD-Remux, HDDVD) [ 32.4 GB ] Человек на Луне / First Man [2018 биография история BD Remux 1080p] [IMAX Edition] DUB [] bober100 Скачать
1 | 0

28-11-2019 20:33  

Отключить всю рекламу на сайте

    Дорогой пользователь! Огромная просьба, поблагодарите релизера, оцените раздачу и оставьте свои комментарий, если Вы скачали Человек на Луне через торрент бесплатно! Внесите свою лепту в развитие PiratBit!
    Комментировать посты могут только пользователи прошедшие не сложную регистрацию
    Показать сообщения:    

    Человек на Луне через торрент
    Скачать бесплатно Человек на Луне
    Человек на Луне скачать торрент
    Человек на Луне смотреть онлайн
    Cкачать фильм Человек на Луне бесплатно
    Человек на Луне скачать торрент в хорошем качестве
    Человек на Луне смотреть онлайн бесплатно в хорошем качестве


    Вы не можете начинать темы
    Вы не можете отвечать на сообщения
    Вы не можете редактировать свои сообщения
    Вы не можете удалять свои сообщения
    Вы не можете голосовать в опросах
    Вы не можете прикреплять файлы к сообщениям
    Вы можете скачивать файлы