Ссылка на приватное зеркало всего за 1$. Внимание количество ограничено!!!

OK

1+1

iTunes

мы

OK

1

WEB-DLRip

Джокер

Пифагор

Ведьмак / The Witcher сериал

Лицензия

ПШазам

ОК

Оно 2

iTunes

30
pack

Вам бонус

ВАЖНО

!!Акция!!

Alien_RageХит недели

RePack

Resident Evil 21

ИГРА 18+

pack

RePack

jed

!!Акция!!

Alien_Rage

RePack

fifa19

RePack

Assassins Creed: Odyssey

RePack

NEED FOR SPEED™ PAYBACK

4 сезон

9 сезон

Бесстыжие 9 сезон

Все сериалы

все сериалы на PB.wtf

RePack

FAR CRY 5
  

Завтра будет новый день / Huang jin hua / Tomorrow is Another Day (Чан Тай-Ли) [2017, Драма, BDRip 720p] MVO ["Синема УС"] pb.wtf

Завтра будет новый день через торрент pb.wtf

Размер: 4.45 GB | Добавлен: 1 год 1 мес. назад | Торрент скачан:4 раза
Скачать  

13-12-2018 08:42 Завтра будет новый день Скачать торрент  

Завтра будет новый день / Huang jin hua / Tomorrow is Another Day Год выпуска: 2017
Страна: Гонконг
Жанр: Драма
Продолжительность: 01:31:51
Перевод: Любительский (многоголосый) | "Синема УС"
Субтитры: отсутствуют

Режиссер: Чан Тай-Ли

rating

В ролях:

Тереза Мо, Рэй Лю, Лин Мань-Лун, Пруденс Лю, Сели Сянь, Кэндис Ю, Джойс Чэн, Альвина Конг, Мэг Лам, Джун Лам

Описание:

Женщина средних лет совсем не ожидала, что муж вдруг бросит ее со взрослым сыном-аутистом и уйдет к молодой любовнице. Оставшись заботиться о больном в одиночку, женщина сначала впадает в отчаяние, но потом начинает лучше понимать сына.

Качество: BDRip 720p
Формат: MKV

Видео: h.264,6 479 Кбит/с, 1280x674
Аудио#1: Русский (AC3, 2 ch, 448 Кбит/с)
скриншот  скриншот  скриншот  

Общее
Уникальный идентификатор : 179196043710682807811329672692043415231 (0x86CFE7140EE1BA3082F84DA04390FEBF)
Полное имя : E:\торреннты\Tomorrow.is.Another.Day.2017.P.BDRip.72Op.mkv
Формат : Matroska
Версия формата : Version 2
Размер файла : 4,45 Гбайт
Продолжительность : 1 ч. 31 м.
Режим общего битрейта : Переменный
Общий поток : 6929 Кбит/сек
Дата кодирования : UTC 2018-12-12 18:51:07
Программа кодирования : mkvmerge v8.3.0 ('Over the Horizon') 64bit
Библиотека кодирования : libebml v1.3.1 + libmatroska v1.4.2

Видео
Идентификатор : 1
Формат : AVC
Формат/Информация : Advanced Video Codec
Профиль формата : High@L4.1
Настройки формата : CABAC / 4 Ref Frames
Параметр CABAC формата : Да
Параметр RefFrames формата : 4 кадра
Идентификатор кодека : V_MPEG4/ISO/AVC
Продолжительность : 1 ч. 31 м.
Вид битрейта : Переменный
Битрейт : 6479 Кбит/сек
Максимальный битрейт : 7400 Кбит/сек
Ширина : 1280 пикселей
Высота : 674 пикселя
Соотношение сторон : 1,899
Режим частоты кадров : Постоянный
Частота кадров : 23,976 (24000/1001) кадра/сек
Стандарт вещания : Component
Цветовое пространство : YUV
Субдискретизация насыщенности : 4:2:0
Битовая глубина : 8 бит
Тип развёртки : Прогрессивная
Бит/(Пиксели*Кадры) : 0.307
Размер потока : 4,07 Гбайт (92%)
Default : Да
Forced : Нет
Цветовой диапазон : Limited
Основные цвета : BT.709
Характеристики трансфера : BT.709
Коэффициенты матрицы : BT.709

Аудио
Идентификатор : 2
Формат : AC-3
Формат/Информация : Audio Coding 3
Идентификатор кодека : A_AC3
Продолжительность : 1 ч. 31 м.
Вид битрейта : Постоянный
Битрейт : 448 Кбит/сек
Каналы : 2 канала
Расположение каналов : Front: L R
Частота : 48,0 КГц
Частота кадров : 31,250 кадров/сек (1536 SPF)
Битовая глубина : 16 бит
Метод сжатия : С потерями
Размер потока : 294 Мбайт (6%)
ServiceKind/String : Complete Main
Default : Да
Forced : Нет

pb.wtf



Скачать Завтра будет новый день через торрент https://b.radikal.ru/b19/1812/9e/724412739b01.jpg Скачать фильм Завтра будет новый день через торрент бесплантно в хорошем качестве Описание: Женщина средних лет совсем не ожидала, что муж вдруг бросит ее со взрослым сыном-аутистом и уйдет к молодой любовнице. Оставшись ... 10 10 2
Торрент: Зарегистрирован [2018-12-13 08:42] · скачан: 4 раз
Статус: # сомнительно
Размер: 4.45 GB
Как cкачать? Как скачать Завтра будет новый день через торрент | qTorrent

% Раздел Тема Автор DL S | L
# Фильмы (мультфильмы) cо спонсором показа (Новинки AVI/MKV) [ 1.37 GB ] Завтра будет новый день / Huang jin hua / Tomorrow is Another Day [2017 HDRip] MVO ["Синема УС"] bober100 Скачать
1 | 0

28-11-2019 20:33  

Отключить всю рекламу на сайте

    Дорогой пользователь! Огромная просьба, поблагодарите релизера, оцените раздачу и оставьте свои комментарий, если Вы скачали Завтра будет новый день через торрент бесплатно! Внесите свою лепту в развитие PiratBit!
    Комментировать посты могут только пользователи прошедшие не сложную регистрацию
    Показать сообщения:    

    Завтра будет новый день через торрент
    Скачать бесплатно Завтра будет новый день
    Завтра будет новый день скачать торрент
    Завтра будет новый день смотреть онлайн
    Cкачать фильм Завтра будет новый день бесплатно
    Завтра будет новый день скачать торрент в хорошем качестве
    Завтра будет новый день смотреть онлайн бесплатно в хорошем качестве


    Вы не можете начинать темы
    Вы не можете отвечать на сообщения
    Вы не можете редактировать свои сообщения
    Вы не можете удалять свои сообщения
    Вы не можете голосовать в опросах
    Вы не можете прикреплять файлы к сообщениям
    Вы можете скачивать файлы