Ссылка на приватное зеркало нашего сайта всего за 1$. Внимание количество ограничено!!!

2 сезон

iTunes

1 сезон

1

iTunes

iTunes

iTunes

1 сезон

RePack

30

ИГРА 18+

pack

ВАЖНО

!!Акция!!

Alien_RageХит недели

RePack

MK11
pack

Забери бонус

RePack

jed

!!Акция!!

Alien_Rage

RePack

fifa19

RePack

Assassins Creed: Odyssey

RePack

NEED FOR SPEED™ PAYBACK

4 сезон

9 сезон

Бесстыжие 9 сезон

Все сериалы

все сериалы на PB.wtf

RePack

FAR CRY 5
  

Жажда смерти / Death Wish (Элай Рот) [2018, боевик, триллер, криминал, BD Remux 1080p] 2xAVO+DUB [iTunes] pb.wtf

Жажда смерти через торрент pb.wtf

Размер: 27.87 GB | Добавлен: 1 год 10 мес. назад | Торрент скачан:20 раз
Скачать  

13-12-2018 09:49 Жажда смерти Скачать торрент  

Жажда смерти / Death Wish
Год выпуска: 2018
Страна: США
Жанр: боевик, триллер, криминал
Продолжительность: 01:46:03
Перевод:

1: Дублированный | iTunes
2: Авторский (одноголосый закадровый) | Андрей Гаврилов
3: Авторский (одноголосый закадровый) | Михаил Чадов

Субтитры: Русские, английские

Режиссер: Элай Рот

rating

В ролях:

Брюс Уиллис, Винсент Д Онофрио, Элизабет Шу, Камила Морроне, Дин Норрис, Бо Напп, Кимберли Элиз, Лен Кариу, Джек Кеси, Ронни Джин Блевинс

Описание:

Пол Керси - хирург, привыкший вытаскивать людей с того света после криминальных разборок. Но после того, как его жена и дочь становятся жертвами уличной банды, а полиция бездействует, он берет карающий меч правосудия в свои руки. Видео изобретательных убийств преступников покоряют интернет-топы, а среди жителей города расходятся слухи о неуловимом народном мстителе, которому теперь принадлежит весь город. Он мстит бодро, весело и со вкусом.



Качество: BD Remux 1080p
Формат: MKV

Видео: MPEG-4 AVC, 1920x1080, 32.5 Mbit/s, 23.976 fps
Аудио#1: 48 kHz, AC3, 5.1, 384 Kbps | iTunes | RUS |
Аудио#2: АС3, 6 ch, 48 kHz, 384 kbps | RUS Андрей Гаврилов |
Аудио#3: АС3, 6 ch, 48 kHz, 640 kbps | RUS Михаил Чадов |
Аудио#4: 48 kHz, DTS-HD MA, 5.1, 3437 Kbps | Оригинал | ENG |
скриншот  
скриншот  скриншот  скриншот  скриншот  скриншот  

Общее
Уникальный идентификатор : 6712075605367760305550145825322954380 (0x50CB2E09B7E56887E1B8C98CD2DEE8C)
Полное имя : E:\Death.Wish.2018.REMUX.mkv
Формат : Matroska
Версия формата : Version 4 / Version 2
Размер файла : 27,9 Гбайт
Продолжительность : 1 ч. 46 м.
Режим общего битрейта : Переменный
Общий поток : 37,4 Мбит/сек
Дата кодирования : UTC 2018-09-15 18:39:56
Программа кодирования : mkvmerge v20.0.0 ('I Am The Sun') 64-bit
Библиотека кодирования : libebml v1.3.5 + libmatroska v1.4.8

Видео
Идентификатор : 1
Формат : AVC
Формат/Информация : Advanced Video Codec
Профиль формата : High@L4.1
Настройки формата : CABAC / 4 Ref Frames
Параметр CABAC формата : Да
Параметр RefFrames формата : 4 кадра
Идентификатор кодека : V_MPEG4/ISO/AVC
Продолжительность : 1 ч. 46 м.
Вид битрейта : Переменный
Максимальный битрейт : 38,5 Мбит/сек
Ширина : 1920 пикселей
Высота : 1080 пикселей
Соотношение сторон : 16:9
Режим частоты кадров : Постоянный
Частота кадров : 23,976 (24000/1001) кадра/сек
Цветовое пространство : YUV
Субдискретизация насыщенности : 4:2:0
Битовая глубина : 8 бит
Тип развёртки : Прогрессивная
Язык : English
Default : Да
Forced : Нет

Аудио #1
Идентификатор : 2
Формат : AC-3
Формат/Информация : Audio Coding 3
Идентификатор кодека : A_AC3
Продолжительность : 1 ч. 46 м.
Вид битрейта : Постоянный
Битрейт : 384 Кбит/сек
Каналы : 6 каналов
Расположение каналов : Front: L C R, Side: L R, LFE
Частота : 48,0 КГц
Частота кадров : 31,250 кадров/сек (1536 SPF)
Битовая глубина : 16 бит
Метод сжатия : С потерями
Размер потока : 293 Мбайт (1%)
Заголовок : iTunes
Язык : Russian
ServiceKind/String : Complete Main
Default : Да
Forced : Нет

Аудио #2
Идентификатор : 3
Формат : AC-3
Формат/Информация : Audio Coding 3
Идентификатор кодека : A_AC3
Продолжительность : 1 ч. 46 м.
Вид битрейта : Постоянный
Битрейт : 384 Кбит/сек
Каналы : 6 каналов
Расположение каналов : Front: L C R, Side: L R, LFE
Частота : 48,0 КГц
Частота кадров : 31,250 кадров/сек (1536 SPF)
Битовая глубина : 16 бит
Метод сжатия : С потерями
Размер потока : 293 Мбайт (1%)
Заголовок : AVO Gavrilov
Язык : Russian
ServiceKind/String : Complete Main
Default : Нет
Forced : Нет

Аудио #3
Идентификатор : 4
Формат : AC-3
Формат/Информация : Audio Coding 3
Идентификатор кодека : A_AC3
Продолжительность : 1 ч. 46 м.
Вид битрейта : Постоянный
Битрейт : 640 Кбит/сек
Каналы : 6 каналов
Расположение каналов : Front: L C R, Side: L R, LFE
Частота : 48,0 КГц
Частота кадров : 31,250 кадров/сек (1536 SPF)
Битовая глубина : 16 бит
Метод сжатия : С потерями
Размер потока : 489 Мбайт (2%)
Заголовок : VO Chadov
Язык : Russian
ServiceKind/String : Complete Main
Default : Нет
Forced : Нет

Аудио #4
Идентификатор : 5
Формат : DTS
Формат/Информация : Digital Theater Systems
Профиль формата : MA / Core
Идентификатор кодека : A_DTS
Продолжительность : 1 ч. 46 м.
Вид битрейта : Переменный / Постоянный
Битрейт : Неизвестно / 1509 Кбит/сек
Каналы : 6 каналов
Расположение каналов : Front: L C R, Side: L R, LFE
Частота : 48,0 КГц
Частота кадров : 93,750 кадра/сек (512 SPF)
Битовая глубина : 24 бит
Метод сжатия : Без потерь / Lossy
Заголовок : Original
Язык : English
Default : Нет
Forced : Нет

Текст #1
Идентификатор : 6
Формат : UTF-8
Идентификатор кодека : S_TEXT/UTF8
Идентификатор кодека/Информация : UTF-8 Plain Text
Язык : Russian
Default : Нет
Forced : Нет

Текст #2
Идентификатор : 7
Формат : UTF-8
Идентификатор кодека : S_TEXT/UTF8
Идентификатор кодека/Информация : UTF-8 Plain Text
Язык : English
Default : Нет
Forced : Нет

Меню
00:00:00.000 : en:00:00:00.000
00:05:39.089 : en:00:05:39.089
00:08:51.239 : en:00:08:51.239
00:11:55.798 : en:00:11:55.798
00:19:12.860 : en:00:19:12.860
00:24:34.139 : en:00:24:34.139
00:28:37.174 : en:00:28:37.174
00:32:45.964 : en:00:32:45.964
00:36:15.840 : en:00:36:15.840
00:43:49.168 : en:00:43:49.168
00:47:10.411 : en:00:47:10.411
00:53:49.518 : en:00:53:49.518
00:56:56.330 : en:00:56:56.330
01:00:27.082 : en:01:00:27.082
01:07:55.154 : en:01:07:55.154
01:11:16.564 : en:01:11:16.564
01:15:52.256 : en:01:15:52.256
01:19:23.926 : en:01:19:23.926
01:22:41.415 : en:01:22:41.415
01:25:43.889 : en:01:25:43.889
01:28:20.837 : en:01:28:20.837
01:31:24.813 : en:01:31:24.813
01:37:14.537 : en:01:37:14.537
01:40:07.585 : en:01:40:07.585

pb.wtf



Скачать Жажда смерти через торрент https://img11.lostpic.net/2018/07/04/3f90239b6ca7206f3d28aea031aa4c7c.jpg Скачать фильм Жажда смерти через торрент бесплантно в хорошем качестве Описание: Пол Керси - хирург, привыкший вытаскивать людей с того света после криминальных разборок. Но после того, как его жена и дочь ... 10 10 2
Торрент: Зарегистрирован [2018-12-13 09:49] · скачан: 20 раз
Статус: √ проверено
Размер: 27.87 GB
Как cкачать? Как скачать Жажда смерти через торрент | qTorrent

% Раздел Тема Автор DL S | L
Фильмы 2018 [DVDrip, WEB-DLRip, HDrip] (DUB, MVO) [ 1.8 GB ] Жажда смерти / Death Wish [2018 BDRip-AVC] DUB [] - ExKinoRay Enigma2010 Скачать
10 | 0
Фильмы [HD 720p, 1080p] (Хороший звук DUB, MVO) [ 7.15 GB ] Жажда смерти / Death Wish [2018 BDRip 720p] DUB [] +2xAVO+MVO [UKR] bober100 Скачать
2 | 0
Фильмы [HD 720p, 1080p] (Хороший звук DUB, MVO) [ 16.39 GB ] Жажда смерти / Death Wish [2018 BDRip 1080p] DUB [] +2xAVO+MVO [UKR] bober100 Скачать
1 | 0
Ultra HD (UHD: 2K, 4K, 8K) — видео сверхвысокой чёткости [ 56.86 GB ] Жажда смерти / Death Wish [2018 UHD BDRemux 2160p] [Dolby Vision] bober100 Скачать
1 | 0
Ultra HD (UHD: 2K, 4K, 8K) — видео сверхвысокой чёткости [ 59.66 GB ] Жажда смерти / Death Wish [2018 UHD Blu-ray 2160p] sheker187 Скачать
1 | 0
Фильмы (HD 720p, 1080p) (48-60 fps) [ 12.5 GB ] Жажда смерти / Death Wish [2018 BDRip 1080p 60 fps] bober100 Скачать
1 | 0
Фильмы с авторской озвучкой [ 1.47 GB ] Жажда смерти / Death Wish [2018 BDRip-AVC] AVO [Чадов] - ExKinoRay Enigma2010 Скачать
5 | 0

28-11-2019 20:33  

Отключить всю рекламу на сайте

    Дорогой пользователь! Огромная просьба, поблагодарите релизера, оцените раздачу и оставьте свои комментарий, если Вы скачали Жажда смерти через торрент бесплатно! Внесите свою лепту в развитие PiratBit!
    Комментировать посты могут только пользователи прошедшие не сложную регистрацию
    Показать сообщения:    

    Жажда смерти через торрент
    Скачать бесплатно Жажда смерти
    Жажда смерти скачать торрент
    Жажда смерти смотреть онлайн
    Cкачать фильм Жажда смерти бесплатно
    Жажда смерти скачать торрент в хорошем качестве
    Жажда смерти смотреть онлайн бесплатно в хорошем качестве


    Вы не можете начинать темы
    Вы не можете отвечать на сообщения
    Вы не можете редактировать свои сообщения
    Вы не можете удалять свои сообщения
    Вы не можете голосовать в опросах
    Вы не можете прикреплять файлы к сообщениям
    Вы можете скачивать файлы