Ссылка на приватное зеркало всего за 1$. Внимание количество ограничено!!!

OK

1+1

iTunes

мы

OK

1

WEB-DLRip

Джокер

Пифагор

Ведьмак / The Witcher сериал

Лицензия

ПШазам

ОК

Оно 2

iTunes

30
pack

Вам бонус

ВАЖНО

!!Акция!!

Alien_RageХит недели

RePack

Resident Evil 21

ИГРА 18+

pack

RePack

jed

RePack

fifa19

RePack

Assassins Creed: Odyssey

RePack

NEED FOR SPEED™ PAYBACK

4 сезон

9 сезон

Бесстыжие 9 сезон

Все сериалы

все сериалы на PB.wtf

RePack

FAR CRY 5
  

Суперсеть / SuperGrid (Лоуелл Дин) [2018, боевик, фантастика, WEB-DL 720p] MVO ["Синема УС"] pb.wtf

Суперсеть через торрент pb.wtf

Размер: 3.01 GB | Добавлен: 1 год 1 мес. назад | Торрент скачан:30 раз
Скачать  

13-12-2018 10:12 Суперсеть Скачать торрент  

Суперсеть / SuperGridГод выпуска: 2018
Страна: Канада
Жанр: боевик, фантастика
Продолжительность: 01:22:40
Перевод: Любительский (многоголосый) | "Синема УС"
Субтитры: отсутствуют

Режиссер: Лоуелл Дин

rating

В ролях:

Лео Фафард, Маршалл Уильямс, Натали Крилл, Джейсон Ресо, Эми Матисио, Джонатан Черри, Тинсел Кори, Фэй Рен, Дэниэл Маслани, Шелдон Бергсторм

Описание:

Действие фильма происходит в недалеком будущем. Горнодобывающие конгломераты превратили всю Канаду в огромную пустошь. Два брата отправятся той же дорогой, что отняла жизнь их сестры, чтобы доставить заказчику таинственный груз. В пути их ждет множество проблем - бандиты, разбойные группировки и собственные неразрешенные конфликты.

Качество: WEB-DL 720p
Формат: MKV

Видео: h.264, 4 832 Кбит/с, 1280x528
Аудио#1: Русский, (AC3, 2 ch, 384 Кбит/с)
скриншот  скриншот  скриншот  

Общее
Уникальный идентификатор : 246770344574933320148286515827866235252 (0xB9A63D5673070DB2A18B86A9A14E7174)
Полное имя : E:\торреннты\SuperGrid.2018.P.WEB-DL.72Op_KOSHARA.mkv
Формат : Matroska
Версия формата : Version 2
Размер файла : 3,01 Гбайт
Продолжительность : 1 ч. 22 м.
Режим общего битрейта : Переменный
Общий поток : 5218 Кбит/сек
Дата кодирования : UTC 2018-12-12 17:30:35
Программа кодирования : mkvmerge v8.3.0 ('Over the Horizon') 64bit
Библиотека кодирования : libebml v1.3.1 + libmatroska v1.4.2

Видео
Идентификатор : 1
Формат : AVC
Формат/Информация : Advanced Video Codec
Профиль формата : High@L4.1
Настройки формата : CABAC / 4 Ref Frames
Параметр CABAC формата : Да
Параметр RefFrames формата : 4 кадра
Идентификатор кодека : V_MPEG4/ISO/AVC
Продолжительность : 1 ч. 22 м.
Вид битрейта : Переменный
Битрейт : 4832 Кбит/сек
Максимальный битрейт : 5500 Кбит/сек
Ширина : 1280 пикселей
Высота : 528 пикселей
Соотношение сторон : 2,40:1
Режим частоты кадров : Постоянный
Частота кадров : 23,976 (24000/1001) кадра/сек
Стандарт вещания : Component
Цветовое пространство : YUV
Субдискретизация насыщенности : 4:2:0
Битовая глубина : 8 бит
Тип развёртки : Прогрессивная
Бит/(Пиксели*Кадры) : 0.292
Размер потока : 2,73 Гбайт (91%)
Default : Да
Forced : Нет
Цветовой диапазон : Limited
Основные цвета : BT.709
Характеристики трансфера : BT.709
Коэффициенты матрицы : BT.709

Аудио
Идентификатор : 2
Формат : AC-3
Формат/Информация : Audio Coding 3
Идентификатор кодека : A_AC3
Продолжительность : 1 ч. 22 м.
Вид битрейта : Постоянный
Битрейт : 384 Кбит/сек
Каналы : 2 канала
Расположение каналов : Front: L R
Частота : 32,0 КГц
Частота кадров : 20,833 кадров/сек (1536 SPF)
Битовая глубина : 16 бит
Метод сжатия : С потерями
Размер потока : 227 Мбайт (7%)
ServiceKind/String : Complete Main
Default : Да
Forced : Нет

pb.wtf



Скачать Суперсеть через торрент https://a.radikal.ru/a35/1812/e3/01e64451f1c9.jpg Скачать фильм Суперсеть через торрент бесплантно в хорошем качестве Описание: Действие фильма происходит в недалеком будущем. Горнодобывающие конгломераты превратили всю Канаду в огромную пустошь. Два брата ... 10 10 2
Торрент: Зарегистрирован [2018-12-13 10:12] · скачан: 30 раз
Статус: T временная
Размер: 3.01 GB
Как cкачать? Как скачать Суперсеть через торрент | qTorrent

% Раздел Тема Автор DL S | L
T Фильмы (мультфильмы) cо спонсором показа (Новинки AVI/MKV) [ 1.37 GB ] Суперсеть / SuperGrid [2018 WEB-DLRip] MVO ["Синема УС"] bober100 Скачать
1 | 0

28-11-2019 20:33  

Отключить всю рекламу на сайте

    Дорогой пользователь! Огромная просьба, поблагодарите релизера, оцените раздачу и оставьте свои комментарий, если Вы скачали Суперсеть через торрент бесплатно! Внесите свою лепту в развитие PiratBit!
    Комментировать посты могут только пользователи прошедшие не сложную регистрацию
    Показать сообщения:    

    Суперсеть через торрент
    Скачать бесплатно Суперсеть
    Суперсеть скачать торрент
    Суперсеть смотреть онлайн
    Cкачать фильм Суперсеть бесплатно
    Суперсеть скачать торрент в хорошем качестве
    Суперсеть смотреть онлайн бесплатно в хорошем качестве


    Вы не можете начинать темы
    Вы не можете отвечать на сообщения
    Вы не можете редактировать свои сообщения
    Вы не можете удалять свои сообщения
    Вы не можете голосовать в опросах
    Вы не можете прикреплять файлы к сообщениям
    Вы можете скачивать файлы