Ссылка на приватное зеркало всего за 1$. Внимание количество ограничено!!!

OK

1+1

iTunes

мы

OK

1

WEB-DLRip

Джокер

Пифагор

Ведьмак / The Witcher сериал

iTunes

ПШазам

ОК

Оно 2

iTunes

30
pack

Вам бонус

ВАЖНО

!!Акция!!

Alien_RageХит недели

RePack

Resident Evil 21

ИГРА 18+

pack

RePack

jed

RePack

fifa19

RePack

Assassins Creed: Odyssey

RePack

NEED FOR SPEED™ PAYBACK

4 сезон

9 сезон

Бесстыжие 9 сезон

Все сериалы

все сериалы на PB.wtf

RePack

FAR CRY 5
  

Крайности / In Extremis (Стив Стоун) [2017, ужасы, триллер, WEB-DL 720p] MVO ["Синема УС"] pb.wtf

Крайности через торрент pb.wtf

Размер: 3.37 GB | Добавлен: 1 год 1 мес. назад | Торрент скачан:27 раз
Скачать  

13-12-2018 10:25 Крайности Скачать торрент  

Крайности / In ExtremisГод выпуска: 2017
Страна: Великобритания
Жанр: ужасы, триллер
Продолжительность: 01:31:03
Перевод: Любительский (многоголосый) | "Синема УС"
Субтитры: отсутствуют

Режиссер: Стив Стоун

rating

В ролях:

Дэвид О Хара, Изабелль Аллен, Нил Пирсон, Тойа Уиллкокс, Билли Феллоуз, Лиза Гормли, Тина Харрис, Ник Корнуолл, Джо Симпсон, Стюарт Сессионс

Описание:

На загородный дом семьи Алекса надвигается необычная буря, которая уничтожает всё на своём пути. Связь с внешним миром пропадает, а проехать по дорогам невозможно. Пытаясь докопаться до причины необычайного явления, Алекс приходит к неожиданному выводу, что буря каким-то образом связана с эмоциональным состоянием его дочери-подростка.

Качество: WEB-DL 720p
Формат: MKV

Видео: h.264, 4 911 kb/s, 1280x532
Аудио#1: Русский, (AC3, 2 ch, 384 Кбит/с)
скриншот  скриншот  скриншот  

Общее
Уникальный идентификатор : 207955056491769729579328294563342076315 (0x9C72AFE1C0098F2ABD3F3912A37E499B)
Полное имя : E:\торреннты\In.Extremis.2017.P.WEB-DL.72Op_KOSHARA.mkv
Формат : Matroska
Версия формата : Version 2
Размер файла : 3,37 Гбайт
Продолжительность : 1 ч. 31 м.
Режим общего битрейта : Переменный
Общий поток : 5297 Кбит/сек
Дата кодирования : UTC 2018-12-12 17:35:44
Программа кодирования : mkvmerge v8.3.0 ('Over the Horizon') 64bit
Библиотека кодирования : libebml v1.3.1 + libmatroska v1.4.2

Видео
Идентификатор : 1
Формат : AVC
Формат/Информация : Advanced Video Codec
Профиль формата : High@L4.1
Настройки формата : CABAC / 4 Ref Frames
Параметр CABAC формата : Да
Параметр RefFrames формата : 4 кадра
Идентификатор кодека : V_MPEG4/ISO/AVC
Продолжительность : 1 ч. 31 м.
Вид битрейта : Переменный
Битрейт : 4911 Кбит/сек
Максимальный битрейт : 5500 Кбит/сек
Ширина : 1280 пикселей
Высота : 532 пикселя
Соотношение сторон : 2,40:1
Режим частоты кадров : Постоянный
Частота кадров : 23,976 (24000/1001) кадра/сек
Стандарт вещания : Component
Цветовое пространство : YUV
Субдискретизация насыщенности : 4:2:0
Битовая глубина : 8 бит
Тип развёртки : Прогрессивная
Бит/(Пиксели*Кадры) : 0.301
Размер потока : 3,12 Гбайт (93%)
Default : Да
Forced : Нет
Цветовой диапазон : Limited
Основные цвета : BT.709
Характеристики трансфера : BT.709
Коэффициенты матрицы : BT.709

Аудио
Идентификатор : 2
Формат : AC-3
Формат/Информация : Audio Coding 3
Идентификатор кодека : A_AC3
Продолжительность : 1 ч. 31 м.
Вид битрейта : Постоянный
Битрейт : 384 Кбит/сек
Каналы : 2 канала
Расположение каналов : Front: L R
Частота : 48,0 КГц
Частота кадров : 31,250 кадров/сек (1536 SPF)
Битовая глубина : 16 бит
Метод сжатия : С потерями
Размер потока : 250 Мбайт (7%)
ServiceKind/String : Complete Main
Default : Да
Forced : Нет

pb.wtf



Скачать Крайности через торрент https://c.radikal.ru/c41/1812/46/bd0dd0f9776b.jpg Скачать фильм Крайности через торрент бесплантно в хорошем качестве Описание: На загородный дом семьи Алекса надвигается необычная буря, которая уничтожает всё на своём пути. Связь с внешним миром пропадает, ... 10 10 2
Торрент: Зарегистрирован [2018-12-13 10:25] · скачан: 27 раз
Статус: T временная
Размер: 3.37 GB
Как cкачать? Как скачать Крайности через торрент | qTorrent

% Раздел Тема Автор DL S | L
T Фильмы (мультфильмы) cо спонсором показа (Новинки AVI/MKV) [ 1.36 GB ] Крайности / In Extremis [2017 WEB-DLRip] MVO ["Синема УС"] bober100 Скачать
1 | 0

28-11-2019 20:33  

Отключить всю рекламу на сайте

14-12-2018 07:53 Крайности Скачать торрент  

Наимутнейший фильм в истории человечества. к тому же с самого начала понятно откуда вся движуха. три лысых муравьеда из десятиpb.wtf



    Дорогой пользователь! Огромная просьба, поблагодарите релизера, оцените раздачу и оставьте свои комментарий, если Вы скачали Крайности через торрент бесплатно! Внесите свою лепту в развитие PiratBit!
    Комментировать посты могут только пользователи прошедшие не сложную регистрацию
    Показать сообщения:    

    Крайности через торрент
    Скачать бесплатно Крайности
    Крайности скачать торрент
    Крайности смотреть онлайн
    Cкачать фильм Крайности бесплатно
    Крайности скачать торрент в хорошем качестве
    Крайности смотреть онлайн бесплатно в хорошем качестве


    Вы не можете начинать темы
    Вы не можете отвечать на сообщения
    Вы не можете редактировать свои сообщения
    Вы не можете удалять свои сообщения
    Вы не можете голосовать в опросах
    Вы не можете прикреплять файлы к сообщениям
    Вы можете скачивать файлы