Ссылка на приватное зеркало всего за 1$. Внимание количество ограничено!!!

OK

1+1

iTunes

мы

OK

1

WEB-DLRip

Джокер

Пифагор

Ведьмак / The Witcher сериал

iTunes

ПШазам

ОК

Оно 2

iTunes

30
pack

Вам бонус

ВАЖНО

!!Акция!!

Alien_RageХит недели

RePack

Resident Evil 21

ИГРА 18+

pack

RePack

jed

RePack

fifa19

RePack

Assassins Creed: Odyssey

RePack

NEED FOR SPEED™ PAYBACK

4 сезон

9 сезон

Бесстыжие 9 сезон

Все сериалы

все сериалы на PB.wtf

RePack

FAR CRY 5
  

Рай наизнанку / Reverse Heaven / Heaven and Hell (Стюарт Пол) [2018, Ужасы, драма, детектив, WEB-DL 720p] MVO ["Синема УС"] pb.wtf

Рай наизнанку через торрент pb.wtf

Размер: 3.97 GB | Добавлен: 1 год 1 мес. назад | Торрент скачан:53 раза
Скачать  

13-12-2018 10:48 Рай наизнанку Скачать торрент  

Рай наизнанку / Reverse Heaven / Heaven and Hell Год выпуска: 2018
Страна: США
Жанр: Ужасы, драма, детектив
Продолжительность: 01:46:54
Перевод: Любительский (многоголосый) | "Синема УС"
Субтитры: отсутствуют

Режиссер: Стюарт Пол

rating

В ролях:

Сара Агор, Стюарт Пол, Тим Дэкс, Кэроли Джарделло, Андреа Корскадден, Тони Гилберт, Пол Иссак

Описание:

Полицейский города Лос-Анджелес открывает в себе сверхъестественные способности после несчастного случая. В то же время из глубин ада высвобождается ужасная сила, высасывающая души людей. Сможет ли герой познать любовь и спасти мир или же миру суждено погибнуть в хаосе и отчаянии?

Качество: WEB-DL 720p
Формат: MKV

Видео: h.264,4 933 kb/s, 1280x720
Аудио#1: Русский, (AC3, 2 ch, 384 Кбит/с)
скриншот  скриншот  скриншот  

Общее
Уникальный идентификатор : 221265229572690602268245998990454134544 (0xA6762214B6E0819D9F371F6F9C0F9710)
Полное имя : E:\торреннты\Heaven.and.Hell.2018.P.WEB-DL.72Op_KOSHARA.mkv
Формат : Matroska
Версия формата : Version 2
Размер файла : 3,97 Гбайт
Продолжительность : 1 ч. 46 м.
Режим общего битрейта : Переменный
Общий поток : 5319 Кбит/сек
Дата кодирования : UTC 2018-12-12 13:12:32
Программа кодирования : mkvmerge v8.3.0 ('Over the Horizon') 64bit
Библиотека кодирования : libebml v1.3.1 + libmatroska v1.4.2

Видео
Идентификатор : 1
Формат : AVC
Формат/Информация : Advanced Video Codec
Профиль формата : High@L4.1
Настройки формата : CABAC / 4 Ref Frames
Параметр CABAC формата : Да
Параметр RefFrames формата : 4 кадра
Идентификатор кодека : V_MPEG4/ISO/AVC
Продолжительность : 1 ч. 46 м.
Вид битрейта : Переменный
Битрейт : 4933 Кбит/сек
Максимальный битрейт : 5500 Кбит/сек
Ширина : 1280 пикселей
Высота : 720 пикселей
Соотношение сторон : 16:9
Режим частоты кадров : Постоянный
Частота кадров : 23,976 (24000/1001) кадра/сек
Стандарт вещания : Component
Цветовое пространство : YUV
Субдискретизация насыщенности : 4:2:0
Битовая глубина : 8 бит
Тип развёртки : Прогрессивная
Бит/(Пиксели*Кадры) : 0.219
Размер потока : 3,61 Гбайт (91%)
Default : Да
Forced : Нет
Цветовой диапазон : Limited
Основные цвета : BT.709
Характеристики трансфера : BT.709
Коэффициенты матрицы : BT.709

Аудио
Идентификатор : 2
Формат : AC-3
Формат/Информация : Audio Coding 3
Идентификатор кодека : A_AC3
Продолжительность : 1 ч. 46 м.
Вид битрейта : Постоянный
Битрейт : 384 Кбит/сек
Каналы : 2 канала
Расположение каналов : Front: L R
Частота : 48,0 КГц
Частота кадров : 31,250 кадров/сек (1536 SPF)
Битовая глубина : 16 бит
Метод сжатия : С потерями
Размер потока : 294 Мбайт (7%)
ServiceKind/String : Complete Main
Default : Да
Forced : Нет

pb.wtf



Скачать Рай наизнанку через торрент https://b.radikal.ru/b33/1812/75/4fad082d310f.jpg Скачать фильм Рай наизнанку через торрент бесплантно в хорошем качестве Описание: Полицейский города Лос-Анджелес открывает в себе сверхъестественные способности после несчастного случая. В то же время из глубин ... 10 10 3
Торрент: Зарегистрирован [2018-12-13 10:48] · скачан: 53 раз
Статус: T временная
Размер: 3.97 GB
Как cкачать? Как скачать Рай наизнанку через торрент | qTorrent

% Раздел Тема Автор DL S | L
T Фильмы (мультфильмы) cо спонсором показа (Новинки AVI/MKV) [ 1.37 GB ] Рай наизнанку / Reverse Heaven / Heaven and Hell [2018 WEB-DLRip] MVO ["Синема УС"] bober100 Скачать
1 | 0

28-11-2019 20:33  

Отключить всю рекламу на сайте

    Дорогой пользователь! Огромная просьба, поблагодарите релизера, оцените раздачу и оставьте свои комментарий, если Вы скачали Рай наизнанку через торрент бесплатно! Внесите свою лепту в развитие PiratBit!
    Комментировать посты могут только пользователи прошедшие не сложную регистрацию
    Показать сообщения:    

    Рай наизнанку через торрент
    Скачать бесплатно Рай наизнанку
    Рай наизнанку скачать торрент
    Рай наизнанку смотреть онлайн
    Cкачать фильм Рай наизнанку бесплатно
    Рай наизнанку скачать торрент в хорошем качестве
    Рай наизнанку смотреть онлайн бесплатно в хорошем качестве


    Вы не можете начинать темы
    Вы не можете отвечать на сообщения
    Вы не можете редактировать свои сообщения
    Вы не можете удалять свои сообщения
    Вы не можете голосовать в опросах
    Вы не можете прикреплять файлы к сообщениям
    Вы можете скачивать файлы