Marvel's Avengers Deluxe Edition (супер цена) 159р. Внимание количество ограничено!!!

2 сезон

iTunes

iTunes

1

iTunes

iTunes

iTunes

WEBRip

iTunes

30
pack

Новость дня

ВАЖНО

!!Акция!!

Alien_RageХит недели

RePack

Horizon Zero Dawn

ИГРА 18+

pack

RePack

jed

!!Акция!!

Alien_Rage

RePack

fifa19

RePack

Assassins Creed: Odyssey

RePack

NEED FOR SPEED™ PAYBACK

4 сезон

9 сезон

Бесстыжие 9 сезон

Все сериалы

все сериалы на PB.wtf

RePack

FAR CRY 5
  

Фингал / Shiner (Сео Мутаревич) [2018, Драма, WEB-DL 720p] MVO ["Синема УС"] pb.wtf

Фингал через торрент pb.wtf

Размер: 3.62 GB | Добавлен: 1 год 9 мес. назад | Торрент скачан:16 раз
Скачать  

13-12-2018 11:54 Фингал Скачать торрент  

Фингал / ShinerГод выпуска: 2018
Страна: США
Жанр: Драма
Продолжительность: 01:37:26
Перевод: Любительский (многоголосый) | "Синема УС"
Субтитры: отсутствуют

Режиссер: Сео Мутаревич

rating

В ролях:

Сейя Хуг, Шеннон Сталлер, Кевин Бернхардт, Рэндолл Инглэнд, Эймин Джозеф, Кирк Фокс, Арчи Хан, Майкл Хадсон, Ибок, Джеки Мах

Описание:

Мэтт пытается осуществить свою давнюю мечту и стать чемпионом мира по смешанным единоборствам. Покинув родной дом, он знакомится с Хэппи МакБрайдом, в прошлом чемпионом мира в тяжёлом весе, который начинает тренировать парня. Однако когда до исполнения мечты остаётся всего один шаг, Мэтт влюбляется в дочь Хэппи, Никки.

Качество: WEB-DL 720p
Формат: MKV

Видео: h.264,4 933 kb/s, 1280x720
Аудио#1: Русский, (AC3, 2 ch, 384 Кбит/с)
скриншот  скриншот  скриншот  

Общее
Уникальный идентификатор : 242412118160264375310968428546525191080 (0xB65EE02F7EC468FD841F5D5829735BA8)
Полное имя : E:\торреннты\Shiner.2018.P.WEB-DL.72Op_KOSHARA.mkv
Формат : Matroska
Версия формата : Version 2
Размер файла : 3,62 Гбайт
Продолжительность : 1 ч. 37 м.
Режим общего битрейта : Переменный
Общий поток : 5319 Кбит/сек
Дата кодирования : UTC 2018-12-12 05:26:21
Программа кодирования : mkvmerge v8.3.0 ('Over the Horizon') 64bit
Библиотека кодирования : libebml v1.3.1 + libmatroska v1.4.2

Видео
Идентификатор : 1
Формат : AVC
Формат/Информация : Advanced Video Codec
Профиль формата : High@L4.1
Настройки формата : CABAC / 4 Ref Frames
Параметр CABAC формата : Да
Параметр RefFrames формата : 4 кадра
Идентификатор кодека : V_MPEG4/ISO/AVC
Продолжительность : 1 ч. 37 м.
Вид битрейта : Переменный
Битрейт : 4933 Кбит/сек
Максимальный битрейт : 5500 Кбит/сек
Ширина : 1280 пикселей
Высота : 720 пикселей
Соотношение сторон : 16:9
Режим частоты кадров : Постоянный
Частота кадров : 23,976 (24000/1001) кадра/сек
Стандарт вещания : Component
Цветовое пространство : YUV
Субдискретизация насыщенности : 4:2:0
Битовая глубина : 8 бит
Тип развёртки : Прогрессивная
Бит/(Пиксели*Кадры) : 0.219
Размер потока : 3,29 Гбайт (91%)
Default : Да
Forced : Нет
Цветовой диапазон : Limited
Основные цвета : BT.709
Характеристики трансфера : BT.709
Коэффициенты матрицы : BT.709

Аудио
Идентификатор : 2
Формат : AC-3
Формат/Информация : Audio Coding 3
Идентификатор кодека : A_AC3
Продолжительность : 1 ч. 37 м.
Вид битрейта : Постоянный
Битрейт : 384 Кбит/сек
Каналы : 2 канала
Расположение каналов : Front: L R
Частота : 48,0 КГц
Частота кадров : 31,250 кадров/сек (1536 SPF)
Битовая глубина : 16 бит
Метод сжатия : С потерями
Размер потока : 268 Мбайт (7%)
ServiceKind/String : Complete Main
Default : Да
Forced : Нет

pb.wtf



Скачать Фингал через торрент https://c.radikal.ru/c31/1812/36/7f3deec878c1.jpg Скачать фильм Фингал через торрент бесплантно в хорошем качестве Описание: Мэтт пытается осуществить свою давнюю мечту и стать чемпионом мира по смешанным единоборствам. Покинув родной дом, он знакомится ... 10 10 2
Торрент: Зарегистрирован [2018-12-13 11:54] · скачан: 16 раз
Статус: T временная
Размер: 3.62 GB
Как cкачать? Как скачать Фингал через торрент | qTorrent

% Раздел Тема Автор DL S | L
T Фильмы (мультфильмы) cо спонсором показа (Новинки AVI/MKV) [ 1.37 GB ] Фингал / Shiner [2018 WEB-DLRip] MVO ["Синема УС"] bober100 Скачать
1 | 0
Фильмы до 2000 г. [ 1.36 GB ] Билли-Фингал / Shiner [2000 WEB-DLRip MVO] кэп Скачать
1 | 0

28-11-2019 20:33  

Отключить всю рекламу на сайте

    Дорогой пользователь! Огромная просьба, поблагодарите релизера, оцените раздачу и оставьте свои комментарий, если Вы скачали Фингал через торрент бесплатно! Внесите свою лепту в развитие PiratBit!
    Комментировать посты могут только пользователи прошедшие не сложную регистрацию
    Показать сообщения:    

    Фингал через торрент
    Скачать бесплатно Фингал
    Фингал скачать торрент
    Фингал смотреть онлайн
    Cкачать фильм Фингал бесплатно
    Фингал скачать торрент в хорошем качестве
    Фингал смотреть онлайн бесплатно в хорошем качестве


    Вы не можете начинать темы
    Вы не можете отвечать на сообщения
    Вы не можете редактировать свои сообщения
    Вы не можете удалять свои сообщения
    Вы не можете голосовать в опросах
    Вы не можете прикреплять файлы к сообщениям
    Вы можете скачивать файлы