Ссылка на приватное зеркало всего за 1$. Внимание количество ограничено!!!

iTunes

iTunes

iTunes

1

iTunes

iTunes

iTunes

iTunes

iTunes

30
pack

$ от Little Big

ВАЖНО

!!Акция!!

Alien_RageХит недели

RePack

Resident Evil 21

ИГРА 18+

pack

RePack

jed

!!Акция!!

Alien_Rage

RePack

fifa19

RePack

Assassins Creed: Odyssey

RePack

NEED FOR SPEED™ PAYBACK

4 сезон

9 сезон

Бесстыжие 9 сезон

Все сериалы

все сериалы на PB.wtf

RePack

FAR CRY 5
  

Ураган / Hurricane (Дэвид Блэр) [2018, Драма, военный, BDRip 1080p] MVO [HDRezka Studio] pb.wtf

Ураган через торрент pb.wtf

Размер: 9.75 GB | Добавлен: 1 год 6 мес. назад | Торрент скачан:132 раза
Скачать  

13-12-2018 11:58 Ураган Скачать торрент  

Ураган / Hurricane Год выпуска: 2018
Страна: Великобритания, Польша
Жанр: Драма, военный
Продолжительность: 01:47:39
Перевод: Профессиональный (многоголосый) | HDRezka Studio
Субтитры: Русские (форс. на немецкую речь), Английские (форс. хардсаб, полные)

Режиссер: Дэвид Блэр

rating

В ролях:

Иван Реон, Майло Гибсон, Стефани Мартини, Марчин Дорочиньский, Криштоф Гадек, Род Артур, Дэн Бурман, Дрю Кэйн

Описание:

История польского пилота Яна Зумбаха, который вступает в ряды британских ВВС, чтобы дать финальный отпор летчику люфтваффе и предотвратить вторжение в Великобританию.

Качество: BDRip 1080p
Формат: MKV

Видео: 1920x804 (2.40:1), 24,000 fps, x264 ~11.3 Mbps avg, 0.304 bit/pixel
Аудио#1: 48 kHz, AC3 Dolby Digital, 2 (L,R) ch, ~192.00 kbps avg | RUS (HDRezka Studio)
Аудио#2: 48 kHz, DTS Digital Theater System, 3/2 (L,C,R,l,r) + LFE ch, ~1 509.00 kbps avg | ENG
скриншот  скриншот  скриншот  скриншот  скриншот  

Общее
Уникальный идентификатор : 126660315042397820308568055992202068952 (0x5F49E3AC7A92182F9FBF2742458C83D8)
Полное имя : F:\OlLanDGroup\Hurricane.2018.x264.BDRip.(1080p).OlLanDGroup.mkv
Формат : Matroska
Версия формата : Version 4 / Version 2
Размер файла : 9,75 Гбайт
Продолжительность : 1 ч. 47 м.
Общий поток : 13,0 Мбит/сек
Название фильма : Ураган.2018.Rip by: ollan
Дата кодирования : UTC 2018-12-13 11:11:41
Программа кодирования : mkvmerge v29.0.0 ('Like It Or Not') 64-bit
Библиотека кодирования : libebml v1.3.6 + libmatroska v1.4.9
Обложка : Yes
Attachments : Cover - Hurricane.png

Видео
Идентификатор : 1
Формат : AVC
Формат/Информация : Advanced Video Codec
Профиль формата : High@L4.1
Параметр CABAC формата : Да
Параметр ReFrames формата : 5 кадров
Идентификатор кодека : V_MPEG4/ISO/AVC
Продолжительность : 1 ч. 47 м.
Битрейт : 11,3 Мбит/сек
Ширина : 1920 пикселей
Высота : 804 пикселя
Соотношение сторон : 2,40:1
Режим частоты кадров : Постоянный
Частота кадров : 24,000 кадра/сек
Цветовое пространство : YUV
Субдискретизация насыщенности : 4:2:0
Битовая глубина : 8 бит
Тип развёртки : Прогрессивная
Бит/(Пиксели*Кадры) : 0.304
Размер потока : 8,47 Гбайт (87%)
Библиотека кодирования : x264 core 146 r2538 121396c
Настройки программы : cabac=1 / ref=5 / deblock=1:-2:-3 / analyse=0x3:0x133 / me=umh / subme=11 / psy=1 / psy_rd=0.90:0.15 / mixed_ref=1 / me_range=64 / chroma_me=1 / trellis=2 / 8x8dct=1 / cqm=0 / deadzone=21,11 / fast_pskip=0 / chroma_qp_offset=-3 / threads=12 / lookahead_threads=3 / sliced_threads=0 / nr=0 / decimate=0 / interlaced=0 / bluray_compat=0 / constrained_intra=0 / bframes=10 / b_pyramid=2 / b_adapt=2 / b_bias=0 / direct=3 / weightb=1 / open_gop=0 / weightp=2 / keyint=240 / keyint_min=23 / scenecut=40 / intra_refresh=0 / rc_lookahead=40 / rc=2pass / mbtree=0 / bitrate=11278 / ratetol=1.0 / qcomp=0.60 / qpmin=0 / qpmax=69 / qpstep=4 / cplxblur=20.0 / qblur=0.5 / vbv_maxrate=50000 / vbv_bufsize=62500 / nal_hrd=none / filler=0 / ip_ratio=1.40 / pb_ratio=1.30 / aq=1:1.00
Язык : English
Default : Да
Forced : Нет

Аудио #1
Идентификатор : 2
Формат : AC-3
Формат/Информация : Audio Coding 3
Расширение режима : CM (complete main)
Параметр Endianness формата : Big
Идентификатор кодека : A_AC3
Продолжительность : 1 ч. 47 м.
Вид битрейта : Постоянный
Битрейт : 192 Кбит/сек
Каналы : 2 канала
Расположение каналов : Front: L R
Частота : 48,0 КГц
Частота кадров : 31,250 кадров/сек (1536 spf)
Битовая глубина : 16 бит
Метод сжатия : С потерями
Размер потока : 148 Мбайт (1%)
Заголовок : MVO [HDRezka Studio]
Язык : Russian
Default : Да
Forced : Нет

Аудио #2
Идентификатор : 3
Формат : DTS
Формат/Информация : Digital Theater Systems
Режим : 16
Параметр Endianness формата : Big
Идентификатор кодека : A_DTS
Продолжительность : 1 ч. 47 м.
Вид битрейта : Постоянный
Битрейт : 1509 Кбит/сек
Каналы : 6 каналов
Расположение каналов : Front: L C R, Side: L R, LFE
Частота : 48,0 КГц
Частота кадров : 93,750 кадра/сек (512 spf)
Битовая глубина : 16 бит
Метод сжатия : С потерями
Размер потока : 1,13 Гбайт (12%)
Заголовок : [Original]
Язык : English
Default : Нет
Forced : Нет

Текст #1
Идентификатор : 4
Формат : UTF-8
Идентификатор кодека : S_TEXT/UTF8
Идентификатор кодека/Информация : UTF-8 Plain Text
Продолжительность : 1 ч. 28 м.
Битрейт : 4 бит/сек
Count of elements : 77
Размер потока : 2,96 Кбайт (0%)
Заголовок : Forced
Язык : Russian
Default : Да
Forced : Нет

Текст #2
Идентификатор : 5
Формат : UTF-8
Идентификатор кодека : S_TEXT/UTF8
Идентификатор кодека/Информация : UTF-8 Plain Text
Продолжительность : 1 ч. 40 м.
Битрейт : 34 бит/сек
Count of elements : 671
Размер потока : 25,4 Кбайт (0%)
Заголовок : Full
Язык : English
Default : Нет
Forced : Нет

Меню
00:00:00.000 : en:Chapter 01
00:09:16.666 : en:Chapter 02
00:17:38.125 : en:Chapter 03
00:28:06.500 : en:Chapter 04
00:38:33.416 : en:Chapter 05
00:44:07.166 : en:Chapter 06
00:53:05.541 : en:Chapter 07
01:00:42.708 : en:Chapter 08
01:08:58.166 : en:Chapter 09
01:18:09.583 : en:Chapter 10
01:25:20.041 : en:Chapter 11
01:35:42.208 : en:Chapter 12

pb.wtf



Скачать Ураган через торрент https://i106.fastpic.ru/big/2018/1213/94/dd8765ece2ee982e9743053111d64694.png Скачать фильм Ураган через торрент бесплантно в хорошем качестве Описание: История польского пилота Яна Зумбаха, который вступает в ряды британских ВВС, чтобы дать финальный отпор летчику люфтваффе и ... 10 10 10
Торрент: Зарегистрирован [2018-12-13 11:58] · скачан: 132 раз
Статус: T временная
Размер: 9.75 GB
Как cкачать? Как скачать Ураган через торрент | qTorrent

% Раздел Тема Автор DL S | L
T Фильмы 2018 [DVDrip, WEB-DLRip, HDrip] (DUB, MVO) [ 1.46 GB ] Ураган / Hurricane [2018 военный BDRip] MVO [HDRezka Studio] bober100 Скачать
1 | 0
T Фильмы [HD 720p, 1080p] (Хороший звук DUB, MVO) [ 4.07 GB ] Ураган / Hurricane [2018 военный BDRip 720p] MVO [HDRezka Studio] - ExKinoRay Enigma2010 Скачать
1 | 0
T Фильмы 2018 [DVDrip, WEB-DLRip, HDrip] (DUB, MVO) [ 1.82 GB ] Ураган / Hurricane [2018 военный BDRip-AVC] MVO [HDRezka Studio] bober100 Скачать
1 | 0
Фильмы [HD 720p, 1080p] (Хороший звук DUB, MVO) [ 9.37 GB ] Ограбление в ураган / The Hurricane Heist [2018 BDRip 1080p] bober100 Скачать
1 | 0
Ultra HD (UHD: 2K, 4K, 8K) — видео сверхвысокой чёткости [ 26.69 GB ] Ограбление в ураган / The Hurricane Heist [2018 UHD BDRip 2160p] sheker187 Скачать
1 | 0
Ultra HD (UHD: 2K, 4K, 8K) — видео сверхвысокой чёткости [ 60.39 GB ] Ограбление в ураган / The Hurricane Heist [2018 UHD BDRemux 2160p] bober100 Скачать
1 | 0
Фильмы 2018 [DVDrip, WEB-DLRip, HDrip] (DUB, MVO) [ 1.41 GB ] Ограбление в ураган / The Hurricane Heist [2018 BDRip] - Twi7ter Скачать
3 | 0

28-11-2019 20:33  

Отключить всю рекламу на сайте

    Дорогой пользователь! Огромная просьба, поблагодарите релизера, оцените раздачу и оставьте свои комментарий, если Вы скачали Ураган через торрент бесплатно! Внесите свою лепту в развитие PiratBit!
    Комментировать посты могут только пользователи прошедшие не сложную регистрацию
    Показать сообщения:    

    Ураган через торрент
    Скачать бесплатно Ураган
    Ураган скачать торрент
    Ураган смотреть онлайн
    Cкачать фильм Ураган бесплатно
    Ураган скачать торрент в хорошем качестве
    Ураган смотреть онлайн бесплатно в хорошем качестве


    Вы не можете начинать темы
    Вы не можете отвечать на сообщения
    Вы не можете редактировать свои сообщения
    Вы не можете удалять свои сообщения
    Вы не можете голосовать в опросах
    Вы не можете прикреплять файлы к сообщениям
    Вы можете скачивать файлы