Ссылка на приватное зеркало всего за 1$. Внимание количество ограничено!!!

OK

1+1

iTunes

мы

OK

1

WEB-DLRip

Джокер

Пифагор

Ведьмак / The Witcher сериал

iTunes

ПШазам

ОК

Оно 2

iTunes

30
pack

Вам бонус

ВАЖНО

!!Акция!!

Alien_RageХит недели

RePack

Resident Evil 21

ИГРА 18+

pack

RePack

jed

RePack

fifa19

RePack

Assassins Creed: Odyssey

RePack

NEED FOR SPEED™ PAYBACK

4 сезон

9 сезон

Бесстыжие 9 сезон

Все сериалы

все сериалы на PB.wtf

RePack

FAR CRY 5
  

Вечера на хуторе близ Диканьки (Александр Роу) [1961, СССР, фэнтези, мелодрама, комедия, WEB-DLRip 720p от AVP Studio] pb.wtf

Вечера на хуторе близ Диканьки через торрент pb.wtf

Раздают: 22 [ 11 KB/s ]
Размер: 1.46 GB | Добавлен: 1 год 1 мес. назад | Торрент скачан:128 раз
Скачать  

13-12-2018 17:32 Вечера на хуторе близ Диканьки Скачать торрент  

Вечера на хуторе близ Диканьки
Страна: СССР
Производство: К/ст им. Горького

Жанр: фэнтези, мелодрама, комедия
Год выпуска: 1961
Продолжительность: 01:06:00

Перевод: Не требуется
Cубтитры: нет
Оригинальная аудиодорожка: русский

Режиссер: Александр Роу

В ролях:
Людмила Мызникова, Юрий Тавров, Александр Хвыля, Людмила Хитяева, Сергей Мартинсон, Анатолий Кубацкий, Вера Алтайская, Дмитрий Капка, Николай Яковченко, М. Сидорчук, Александр Радунский, Георгий Милляр...
Об актёрах подробней

Описание:
Прекрасная экранизация всеми любимого произведения Николая Васильевича Гоголя `Вечера на хуторе близ Диканьки` поставлена мастером сказочных кинопроизведений Александром Роу.. Прекрасные, удивительно точно подобранные актеры разыгрывают сказочную историю, произошедшую на хуторе близ Диканьки в "Ночь перед рождеством".

Источник: WEB-DL 1080p
Качество видео: WEB-DLRip 720p
Формат видео: MKV

Видео: 960х720 (4:3), 25 fps, H264 ~ 2715 kbps avg, 0.157 bit/pixel
Аудио: 48 kHz, Dolby Digital AC3 5.1, 448 kbps

Раздача от:
Общее
Полное имя : Vechera.na.hutore.bliz.Dikanki.1961.WEB-DLRip720p_[New-team]_by_AVP_Studio.mkv
Формат : Matroska
Версия формата : Version 2
Размер файла : 1,46 Гбайт
Продолжительность : 1 ч. 6 м.
Общий поток : 3165 Кбит/сек
Дата кодирования : UTC 2018-12-13 21:20:38
Программа кодирования : mkvmerge v6.1.0 ('Old Devil') built on Mar 4 2013 09:10:42
Библиотека кодирования : libebml v1.3.0 + libmatroska v1.4.0

Видео
Идентификатор : 1
Формат : AVC
Формат/Информация : Advanced Video Codec
Профиль формата : High@L4.1
Настройки формата : CABAC / 8 Ref Frames
Параметр CABAC формата : Да
Параметр RefFrames формата : 8 кадров
Идентификатор кодека : V_MPEG4/ISO/AVC
Продолжительность : 1 ч. 6 м.
Битрейт : 2715 Кбит/сек
Ширина : 960 пикселей
Высота : 720 пикселей
Соотношение сторон : 4:3
Режим частоты кадров : Постоянный
Частота кадров : 25,000 кадров/сек
Цветовое пространство : YUV
Субдискретизация насыщенности : 4:2:0
Битовая глубина : 8 бит
Тип развёртки : Прогрессивная
Бит/(Пиксели*Кадры) : 0.157
Размер потока : 1,22 Гбайт (84%)
Библиотека кодирования : x264 core 157 r2932 303c484
Настройки программы : cabac=1 / ref=8 / deblock=1:-3:-3 / analyse=0x3:0x133 / me=umh / subme=10 / psy=1 / psy_rd=1.00:0.00 / mixed_ref=1 / me_range=32 / chroma_me=1 / trellis=2 / 8x8dct=1 / cqm=0 / deadzone=21,11 / fast_pskip=1 / chroma_qp_offset=-2 / threads=6 / lookahead_threads=1 / sliced_threads=0 / nr=0 / decimate=0 / interlaced=0 / bluray_compat=0 / constrained_intra=0 / bframes=8 / b_pyramid=2 / b_adapt=2 / b_bias=0 / direct=3 / weightb=1 / open_gop=0 / weightp=2 / keyint=250 / keyint_min=25 / scenecut=40 / intra_refresh=0 / rc=2pass / mbtree=0 / bitrate=2715 / ratetol=1.0 / qcomp=0.60 / qpmin=0 / qpmax=69 / qpstep=4 / cplxblur=20.0 / qblur=0.5 / ip_ratio=1.40 / pb_ratio=1.30 / aq=1:1.00
Default : Да
Forced : Нет

Аудио
Идентификатор : 2
Формат : AC-3
Формат/Информация : Audio Coding 3
Коммерческое название : Dolby Digital
Идентификатор кодека : A_AC3
Продолжительность : 1 ч. 6 м.
Вид битрейта : Постоянный
Битрейт : 448 Кбит/сек
Каналы : 6 каналов
Channel layout : L R C LFE Ls Rs
Частота : 48,0 КГц
Частота кадров : 31,250 кадров/сек (1536 SPF)
Битовая глубина : 16 бит
Метод сжатия : С потерями
Размер потока : 211 Мбайт (14%)
Default : Да
Forced : Нет
pb.wtf



Скачать Вечера на хуторе близ Диканьки через торрент http://c.radikal.ru/c38/1911/90/d470e5b07119.png Скачать фильм Вечера на хуторе близ Диканьки через торрент бесплантно в хорошем качестве Описание:Прекрасная экранизация всеми любимого произведения Николая Васильевича Гоголя `Вечера на хуторе близ Диканьки` поставлена мастером ... 10 10 9
Info! Золотая раздача, скачанное не засчитывается.
Торрент: Зарегистрирован [2018-12-14 08:15] · скачан: 128 раз
Статус: √ проверено
Размер: 1.46 GB
Как cкачать? Как скачать Вечера на хуторе близ Диканьки через торрент | qTorrent

% Раздел Тема Автор DL S | L
Кино СССР [ 1.09 GB ] Вечера на хуторе близ Диканьки [1961 СССР WEB-DLRip от AVP Studio] AVP Studio Скачать
1 | 0
Кино СССР [ 1.09 GB ] Вечера на хуторе близ Диканьки [1961 СССР WEB-DLRip-AVC от AVP Studio] AVP Studio Скачать
6 | 1
Кино СССР [ 1.37 GB ] Вечера на хуторе близ Диканьки [1961 сказка DVDRip лицензия] B@rt Скачать
1 | 0
Кино СССР [ 700 MB ] Вечера на хуторе близ Диканьки [1961 ... DVDRip Пиратка] boromir9 Скачать
1 | 0


Последний раз редактировалось: AVP Studio (2019-11-20 10:49), всего редактировалось 1 раз

28-11-2019 20:33  

Отключить всю рекламу на сайте

14-12-2018 08:16 Вечера на хуторе близ Диканьки Скачать торрент  

Нашел более качественный исходник, картинка супер.
Переделал, если есть желание перекачайте, фильм супер.pb.wtf



    Дорогой пользователь! Огромная просьба, поблагодарите релизера, оцените раздачу и оставьте свои комментарий, если Вы скачали Вечера на хуторе близ Диканьки через торрент бесплатно! Внесите свою лепту в развитие PiratBit!
    Комментировать посты могут только пользователи прошедшие не сложную регистрацию
    Показать сообщения:    

    Вечера на хуторе близ Диканьки через торрент
    Скачать бесплатно Вечера на хуторе близ Диканьки
    Вечера на хуторе близ Диканьки скачать торрент
    Вечера на хуторе близ Диканьки смотреть онлайн
    Cкачать фильм Вечера на хуторе близ Диканьки бесплатно
    Вечера на хуторе близ Диканьки скачать торрент в хорошем качестве
    Вечера на хуторе близ Диканьки смотреть онлайн бесплатно в хорошем качестве


    Вы не можете начинать темы
    Вы не можете отвечать на сообщения
    Вы не можете редактировать свои сообщения
    Вы не можете удалять свои сообщения
    Вы не можете голосовать в опросах
    Вы не можете прикреплять файлы к сообщениям
    Вы можете скачивать файлы