новый адрес
Ссылка на приватное зеркало всего за 1$. Внимание количество ограничено!!!

iTunes

1+1

iTunes

мы

iTunes

1

iTunes

Чернобыль

iTunes

Ральф против интернета

Лицензия

ПШазам

Лицензия

Оно 2

Лицензия

30
pack

Вам бонус

ВАЖНО

!!Акция!!

Alien_RageХит недели

RePack

Resident Evil 21

ИГРА 18+

pack

RePack

jed

!!Акция!!

Alien_Rage

RePack

fifa19

RePack

Assassins Creed: Odyssey

RePack

NEED FOR SPEED™ PAYBACK

3 сезон

9 сезон

Бесстыжие 9 сезон

Все сериалы

все сериалы на PB.wtf

RePack

FAR CRY 5
Ребята, катастрофически не хватает 1900р. для оплаты серверов за Октябрь (всвязи с блокировками трафик упал в 3 раза), 1-2р., выручайте.
  

Простая просьба / A Simple Favor (Пол Фиг) [2018, триллер, драма, криминал, детектив, BDRip-AVC] DUB [iTunes] pb.wtf

Простая просьба через торрент pb.wtf

Раздают: 4 [ 0 KB/s ]
Размер: 2.45 GB | Добавлен: 11 мес. назад | Торрент скачан:533 раза
Скачать  

14-12-2018 04:20 Простая просьба Скачать торрент  

Простая просьба / A Simple Favor
Год выпуска: 2018
Страна: США
Жанр: триллер, драма, криминал, детектив
Продолжительность: 01:56:48
Перевод: Дублированный | iTunes
Субтитры: Русские (полные), Английские (полные, SDH)

Режиссер: Пол Фиг

rating

В ролях:

Анна Кендрик, Блейк Лайвли, Генри Голдинг, Эндрю Рэннеллс, Иэн Хо, Джошуа Сатине, Гленда Браганза, Келли МакКормак, Апарна Нанчерла, Джия Мавджи

Описание:

Стефани, мама-блогер из маленького городка, оказывает подруге простую услугу, после чего та бесследно исчезает... Вместе с Шоном, мужем пропавшей, Стефани должна докопаться до истины. Отныне их жизни полны тайн и предательств, любви и верности, убийств и мести.

Качество: BDRip-AVC
Формат: MKV

Видео: 1024x552 (1.85:1), 23,976 fps, x264 ~2 167 kbps avg, 0.160 bit/pixel
Аудио#1: 48 kHz, AC3 Dolby Digital, 3/2 (L,C,R,l,r) + LFE ch, ~384.00 kbps avg | RUS (iTunes)
Аудио#2: 48 kHz, AC3 Dolby Digital, 3/2 (L,C,R,l,r) + LFE ch, ~448.00 kbps avg | ENG
скриншот  скриншот  скриншот  скриншот  скриншот  

Общее
Уникальный идентификатор : 330220609135068047865605498111775750210 (0xF86E2D0A519B839FF868B666ECD43842)
Полное имя : F:\OlLanDGroup\A.Simple.Favor.2018.BDRip(AVC).OlLanDGroup.mkv
Формат : Matroska
Версия формата : Version 4 / Version 2
Размер файла : 2,45 Гбайт
Продолжительность : 1 ч. 56 м.
Общий поток : 2998 Кбит/сек
Название фильма : A.Simple.Favor.2018 #TorpedoUK#
Дата кодирования : UTC 2018-12-13 23:04:49
Программа кодирования : mkvmerge v29.0.0 ('Like It Or Not') 64-bit
Библиотека кодирования : libebml v1.3.6 + libmatroska v1.4.9
Обложка : Yes
Attachments : small_cover.jpg / small_cover_land.jpg / cover.jpg / cover_land.jpg

Видео
Идентификатор : 1
Формат : AVC
Формат/Информация : Advanced Video Codec
Профиль формата : High@L4.1
Параметр CABAC формата : Да
Параметр ReFrames формата : 10 кадров
Идентификатор кодека : V_MPEG4/ISO/AVC
Продолжительность : 1 ч. 56 м.
Битрейт : 2167 Кбит/сек
Ширина : 1024 пикселя
Высота : 552 пикселя
Соотношение сторон : 1,85:1
Режим частоты кадров : Постоянный
Частота кадров : 23,976 (24000/1001) кадра/сек
Цветовое пространство : YUV
Субдискретизация насыщенности : 4:2:0
Битовая глубина : 8 бит
Тип развёртки : Прогрессивная
Бит/(Пиксели*Кадры) : 0.160
Размер потока : 1,77 Гбайт (72%)
Библиотека кодирования : x264 core 146 r2538 121396c
Настройки программы : cabac=1 / ref=10 / deblock=1:-3:-3 / analyse=0x3:0x113 / me=umh / subme=11 / psy=1 / psy_rd=0.98:0.04 / mixed_ref=1 / me_range=48 / chroma_me=1 / trellis=2 / 8x8dct=1 / cqm=0 / deadzone=21,11 / fast_pskip=1 / chroma_qp_offset=-3 / threads=6 / lookahead_threads=1 / sliced_threads=0 / nr=0 / decimate=1 / interlaced=0 / bluray_compat=0 / constrained_intra=0 / bframes=11 / b_pyramid=2 / b_adapt=2 / b_bias=0 / direct=3 / weightb=1 / open_gop=0 / weightp=2 / keyint=240 / keyint_min=23 / scenecut=40 / intra_refresh=0 / rc_lookahead=40 / rc=2pass / mbtree=0 / bitrate=2167 / ratetol=1.0 / qcomp=0.60 / qpmin=0 / qpmax=69 / qpstep=4 / cplxblur=20.0 / qblur=0.5 / vbv_maxrate=50000 / vbv_bufsize=62500 / nal_hrd=none / filler=0 / ip_ratio=1.40 / pb_ratio=1.30 / aq=1:1.00
Язык : English
Default : Да
Forced : Нет

Аудио #1
Идентификатор : 2
Формат : AC-3
Формат/Информация : Audio Coding 3
Расширение режима : CM (complete main)
Параметр Endianness формата : Big
Идентификатор кодека : A_AC3
Продолжительность : 1 ч. 56 м.
Вид битрейта : Постоянный
Битрейт : 384 Кбит/сек
Каналы : 6 каналов
Расположение каналов : Front: L C R, Side: L R, LFE
Частота : 48,0 КГц
Частота кадров : 31,250 кадров/сек (1536 spf)
Битовая глубина : 16 бит
Метод сжатия : С потерями
Размер потока : 321 Мбайт (13%)
Заголовок : MVO [iTunes}
Язык : Russian
Default : Да
Forced : Нет

Аудио #2
Идентификатор : 3
Формат : AC-3
Формат/Информация : Audio Coding 3
Расширение режима : CM (complete main)
Параметр Endianness формата : Big
Идентификатор кодека : A_AC3
Продолжительность : 1 ч. 56 м.
Вид битрейта : Постоянный
Битрейт : 448 Кбит/сек
Каналы : 6 каналов
Расположение каналов : Front: L C R, Side: L R, LFE
Частота : 48,0 КГц
Частота кадров : 31,250 кадров/сек (1536 spf)
Битовая глубина : 16 бит
Метод сжатия : С потерями
Размер потока : 374 Мбайт (15%)
Заголовок : [Original]
Язык : English
Default : Нет
Forced : Нет

Текст #1
Идентификатор : 4
Формат : UTF-8
Идентификатор кодека : S_TEXT/UTF8
Идентификатор кодека/Информация : UTF-8 Plain Text
Продолжительность : 1 ч. 55 м.
Битрейт : 117 бит/сек
Count of elements : 2221
Размер потока : 99,2 Кбайт (0%)
Заголовок : Full
Язык : Russian
Default : Нет
Forced : Нет

Текст #2
Идентификатор : 5
Формат : UTF-8
Идентификатор кодека : S_TEXT/UTF8
Идентификатор кодека/Информация : UTF-8 Plain Text
Продолжительность : 1 ч. 50 м.
Битрейт : 90 бит/сек
Count of elements : 2417
Размер потока : 73,3 Кбайт (0%)
Заголовок : Full
Язык : English
Default : Нет
Forced : Нет

Текст #3
Идентификатор : 6
Формат : UTF-8
Идентификатор кодека : S_TEXT/UTF8
Идентификатор кодека/Информация : UTF-8 Plain Text
Продолжительность : 1 ч. 52 м.
Битрейт : 95 бит/сек
Count of elements : 2520
Размер потока : 78,1 Кбайт (0%)
Заголовок : SDH
Язык : English
Default : Нет
Forced : Нет

Меню
00:00:00.000 : en:Chapter 01
00:06:33.684 : en:Chapter 02
00:17:03.439 : en:Chapter 03
00:26:24.165 : en:Chapter 04
00:36:33.941 : en:Chapter 05
00:46:30.329 : en:Chapter 06
00:55:31.369 : en:Chapter 07
01:08:43.661 : en:Chapter 08
01:19:11.079 : en:Chapter 09
01:27:40.588 : en:Chapter 10
01:38:01.750 : en:Chapter 11
01:50:20.572 : en:Chapter 12

pb.wtf



Скачать Простая просьба через торрент https://i106.fastpic.ru/big/2018/1214/d8/3d027cb61b2b50cb8db902cafb0e5fd8.jpg Скачать фильм Простая просьба через торрент бесплантно в хорошем качестве Описание: Стефани, мама-блогер из маленького городка, оказывает подруге простую услугу, после чего та бесследно исчезает... Вместе с Шоном, ... 10 10 6
Info! Золотая раздача, скачанное не засчитывается.
Торрент: Зарегистрирован [2018-12-14 04:20] · скачан: 533 раз
Статус: √ проверено
Размер: 2.45 GB
Как cкачать? Как скачать Простая просьба через торрент | qTorrent

% Раздел Тема Автор DL S | L
Ultra HD (UHD: 2K, 4K, 8K) — видео сверхвысокой чёткости [ 60.41 GB ] Простая просьба / A Simple Favor [2018 UHD BDRemux 2160p] [Dolby Vision TV] bober100 Скачать
1 | 0
Ultra HD (UHD: 2K, 4K, 8K) — видео сверхвысокой чёткости [ 80.99 GB ] Простая просьба / A Simple Favor [2018 UHD Blu-ray 2160p] [Dolby Vision] sheker187 Скачать
1 | 0
Фильмы 2018 [DVDrip, WEB-DLRip, HDrip] (DUB, MVO) [ 746 MB ] Простая просьба / A Simple Favor [2018 BDRip] bober100 Скачать
1 | 0

28-11-2019 20:33  

Отключить всю рекламу на сайте

    Дорогой пользователь! Огромная просьба, поблагодарите релизера, оцените раздачу и оставьте свои комментарий, если Вы скачали Простая просьба через торрент бесплатно! Внесите свою лепту в развитие PiratBit!
    Комментировать посты могут только пользователи прошедшие не сложную регистрацию
    Показать сообщения:    

    Простая просьба через торрент
    Скачать бесплатно Простая просьба
    Простая просьба скачать торрент
    Простая просьба смотреть онлайн
    Cкачать фильм Простая просьба бесплатно
    Простая просьба скачать торрент в хорошем качестве
    Простая просьба смотреть онлайн бесплатно в хорошем качестве


    Вы не можете начинать темы
    Вы не можете отвечать на сообщения
    Вы не можете редактировать свои сообщения
    Вы не можете удалять свои сообщения
    Вы не можете голосовать в опросах
    Вы не можете прикреплять файлы к сообщениям
    Вы можете скачивать файлы