Ссылка на приватное зеркало нашего сайта всего за 1$. Внимание количество ограничено!!!

2 сезон

iTunes

1 сезон

1

iTunes

iTunes

iTunes

1 сезон

RePack

30

ИГРА 18+

pack

ВАЖНО

!!Акция!!

Alien_RageХит недели

RePack

MK11
pack

Забери бонус

RePack

jed

!!Акция!!

Alien_Rage

RePack

fifa19

RePack

Assassins Creed: Odyssey

RePack

NEED FOR SPEED™ PAYBACK

4 сезон

9 сезон

Бесстыжие 9 сезон

Все сериалы

все сериалы на PB.wtf

RePack

FAR CRY 5
  

Лютый / Сезон: 2 / Серии: 1-4 из 4 (Станислав Мареев) [2018, Боевик, криминал, WEBRip 1080p] pb.wtf

Лютый через торрент pb.wtf

Размер: 4.37 GB | Добавлен: 1 год 10 мес. назад | Торрент скачан:107 раз
Скачать  

14-12-2018 07:31 Лютый Скачать торрент  

Лютый - 2Год выпуска: 2018
Страна: Россия
Жанр: Боевик, криминал
Продолжительность: ~ 00:52:00
Субтитры: отсутствуют

Режиссер: Станислав Мареев

В ролях:

Владимир Епифанцев, Ирина Апексимова, Елена Панова, Михаил Трухин, Дарья Мельникова

Описание:

Главного героя, полицейского Максима Лютова, долго считали убитым. Когда он возвращается к работе в полиции и становится новым начальником убойного отдела, у многих коллег это вызывает шок. Старые знакомые смотрят на него как на ожившего покойника. Новые сотрудники отделения с трудом воспринимают его своеобразные манеры и внешний вид. Лютов груб, странно выглядит, странно шутит, и методы работы у него странные.

Качество: WEBRip 1080p
Формат: MKV

Видео: AVC/H.264, 1920x1080 (16:9), ~2945 Kbps
Аудио: AC3, 2 ch, 192 Кбит/с
скриншот  скриншот  скриншот  скриншот  

Общее
Уникальный идентификатор : 269265562408882359265848376820409596837 (0xCA92A934E84ECFE42D4FF3DD93147BA5)
Полное имя : D:Лютый (2018)Серия 1.mkv
Формат : Matroska
Версия формата : Version 4
Размер файла : 1,15 Гбайт
Продолжительность : 52 м. 30 с.
Общий поток : 3138 Кбит/сек
Дата кодирования : UTC 2018-12-06 17:01:39
Программа кодирования : mkvmerge v29.0.0 ('Like It Or Not') 32-bit
Библиотека кодирования : libebml v1.3.6 + libmatroska v1.4.9 / Lavf57.71.100

Видео
Идентификатор : 1
Формат : AVC
Формат/Информация : Advanced Video Codec
Профиль формата : High@L4
Настройки формата : CABAC / 2 Ref Frames
Параметр CABAC формата : Да
Параметр RefFrames формата : 2 кадра
Идентификатор кодека : V_MPEG4/ISO/AVC
Продолжительность : 52 м. 30 с.
Битрейт : 2944 Кбит/сек
Ширина : 1920 пикселей
Высота : 1080 пикселей
Соотношение сторон : 16:9
Режим частоты кадров : Постоянный
Частота кадров : 25,000 кадров/сек
Цветовое пространство : YUV
Субдискретизация насыщенности : 4:2:0
Битовая глубина : 8 бит
Тип развёртки : Прогрессивная
Бит/(Пиксели*Кадры) : 0.057
Размер потока : 1,08 Гбайт (94%)
Default : Да
Forced : Нет
Цветовой диапазон : Limited
Основные цвета : BT.709
Характеристики трансфера : BT.709
Коэффициенты матрицы : BT.709

Аудио
Идентификатор : 2
Формат : AC-3
Формат/Информация : Audio Coding 3
Коммерческое название : Dolby Digital
Идентификатор кодека : A_AC3
Продолжительность : 52 м. 30 с.
Вид битрейта : Постоянный
Битрейт : 192 Кбит/сек
Каналы : 2 канала
Channel layout : L R
Частота : 48,0 КГц
Частота кадров : 31,250 кадров/сек (1536 SPF)
Битовая глубина : 16 бит
Метод сжатия : С потерями
Размер потока : 72,1 Мбайт (6%)
ServiceKind : Complete Main
Default : Да
Forced : Нет

Внимание! Раздача ведётся путём добавления новых серий; при каждом добавлении создаётся новый торрент. Чтобы начать докачку новой серии, пользователям необходимо сделать следующее:
(1) остановить скачивание,
(2) удалить старый торрент-файл у себя из клиента (старые серии удалять не надо),
(3) скачать новый торрент-файл из раздачи и запустить его у себя в клиенте вместо старого, при этом указать клиенту путь в старую папку, куда и должно происходить скачивание новых серий.
pb.wtf



Скачать Лютый через торрент https://i106.fastpic.ru/big/2018/1206/91/98bd54415d2dc509fdc1cdab17dc6a91.jpg Скачать фильм Лютый через торрент бесплантно в хорошем качестве Описание: Главного героя, полицейского Максима Лютова, долго считали убитым. Когда он возвращается к работе в полиции и становится новым ... 9.3 10 11
Торрент: Зарегистрирован [2018-12-28 04:49] · скачан: 107 раз
Статус: √ проверено
Размер: 4.37 GB
Как cкачать? Как скачать Лютый через торрент | qTorrent

% Раздел Тема Автор DL S | L
Наши сериалы [ 2.6 GB ] Лютый / Сезон: 2 / Серии: 1-4 из 4 [2018 WEBRip-AVC] bober100 Скачать
1 | 0
Наши сериалы [ 2.61 GB ] Лютый / Сезон: 2 / Серии: 1-4 из 4 [2018 WEB-DLRip] bober100 Скачать
1 | 0

28-11-2019 20:33  

Отключить всю рекламу на сайте

    Дорогой пользователь! Огромная просьба, поблагодарите релизера, оцените раздачу и оставьте свои комментарий, если Вы скачали Лютый через торрент бесплатно! Внесите свою лепту в развитие PiratBit!
    Комментировать посты могут только пользователи прошедшие не сложную регистрацию
    Показать сообщения:    

    Лютый через торрент
    Скачать бесплатно Лютый
    Лютый скачать торрент
    Лютый смотреть онлайн
    Cкачать фильм Лютый бесплатно
    Лютый скачать торрент в хорошем качестве
    Лютый смотреть онлайн бесплатно в хорошем качестве


    Вы не можете начинать темы
    Вы не можете отвечать на сообщения
    Вы не можете редактировать свои сообщения
    Вы не можете удалять свои сообщения
    Вы не можете голосовать в опросах
    Вы не можете прикреплять файлы к сообщениям
    Вы можете скачивать файлы