Мега распродажа FORZA HORIZON 4 ULTIMATE+ВСЕ DLC+ОНЛАЙН всего за 499р. 349 руб. (супер цена). Внимание количество ограничено!!!

Лицензия

30

iTunes

мы

iTunes

1

1 сезон

Чернобыль

1 сезон

Ральф против интернета

MVO

Покемон. Детектив Пикачу

8 сезон

Игра престолов

iTunes

1+1

ИГРА 18+

pack

ВАЖНО

!!Акция!!

Alien_RageХит недели

RePack

Resident Evil 21
pack

RePack

Metro:Exodus

!!Акция!!

Alien_Rage

RePack

fifa19

RePack

Assassins Creed: Odyssey

RePack

NEED FOR SPEED™ PAYBACK

3 сезон

9 сезон

Бесстыжие 9 сезон

Все сериалы

все сериалы на PB.wtf

RePack

FAR CRY 5
Ребята, катастрофически не хватает 2730р. для оплаты серверов за МАЙ (всвязи с блокировками трафик упал в 3 раза), 1-2р., выручайте.
  

Летящие сквозь ночь / Nightflyers / Сезон: 1 / Серии: 1-10 из 10 (Эндрю МакКарти, Майк Кэхилл, Мэгги Кили) [2018, ужасы, фантастика, WEBRip] MVO [KosharaSerials] pb.wtf

Летящие сквозь ночь через торрент pb.wtf

Размер: 5.47 GB | Добавлен: 6 мес. назад | Торрент скачан:63 раза
Скачать  

14-12-2018 11:45 Летящие сквозь ночь Скачать торрент  

Летящие сквозь ночь / Nightflyers Год выпуска: 2018
Страна: США
Жанр: ужасы, фантастика
Продолжительность: ~ 00:50:00
Перевод: Любительский многоголосый | KosharaSerials
Субтитры: отсутствуют

Режиссер: Эндрю МакКарти, Майк Кэхилл, Мэгги Кили

rating

В ролях:

Джоди Смит, Гретхен Мол, Оуэн Мэкен, Дэвид Аджала, Энгус Сэмпсон, Сэм Страйк, Майя Эшет, Брайан Ф. О Бирн, Филлип Риз, Gwynne McElveen

Описание:

История о группе исследователей, которые отправляются на далекую планету, чтобы найти загадочное существо, но в пути сталкиваются с другими опасностями.

Качество: WEBRip
Формат: AVI

Видео: XviD, ~ 1500 Кбит/с, 720x360
Аудио: AC3, 2 ch, 192 Кбит/с
скриншот   скриншот   скриншот   скриншот   скриншот  

Общее
Полное имя : E:\Nightflyers.S01.400p.KosharaSerials\Nightflyers.S01E01.400p.KosharaSerials.avi
Формат : AVI
Формат/Информация : Audio Video Interleave
Размер файла : 723 Мбайт
Продолжительность : 59 м. 24 с.
Общий поток : 1701 Кбит/сек
Программа кодирования : VirtualDubMod 1.5.10.3 | www.virtualdub-fr.org || (build 2550/release)
Библиотека кодирования : VirtualDubMod build 2550/release

Видео
Идентификатор : 0
Формат : MPEG-4 Visual
Профиль формата : Advanced Simple@L5
Настройки формата : BVOP2
Параметр BVOP формата : 2
Параметр QPel формата : Нет
Параметр GMC формата : Без точки перехода
Параметр матрицы формата : Default (MPEG)
Идентификатор кодека : XVID
Идентификатор кодека/Подсказка : XviD
Продолжительность : 59 м. 24 с.
Битрейт : 1499 Кбит/сек
Ширина : 720 пикселей
Высота : 360 пикселей
Соотношение сторон : 2,000
Частота кадров : 23,976 (24000/1001) кадра/сек
Цветовое пространство : YUV
Субдискретизация насыщенности : 4:2:0
Битовая глубина : 8 бит
Тип развёртки : Прогрессивная
Метод сжатия : С потерями
Бит/(Пиксели*Кадры) : 0.241
Размер потока : 637 Мбайт (88%)
Библиотека кодирования : XviD 1.2.1 (UTC 2008-12-04)

Аудио
Идентификатор : 1
Формат : AC-3
Формат/Информация : Audio Coding 3
Идентификатор кодека : 2000
Продолжительность : 59 м. 24 с.
Вид битрейта : Постоянный
Битрейт : 192 Кбит/сек
Каналы : 2 канала
Расположение каналов : Front: L R
Частота : 48,0 КГц
Частота кадров : 31,250 кадров/сек (1536 SPF)
Битовая глубина : 16 бит
Метод сжатия : С потерями
Размер потока : 81,6 Мбайт (11%)
Выравнивание : Разделение по промежуткам
Продолжительность промежутка : 42 мс. (1,00 видеокадр)
Время предзагрузки промежутка : 500 мс.
ServiceKind/String : Complete Main

pb.wtf



Скачать Летящие сквозь ночь через торрент https://i106.fastpic.ru/big/2018/1201/39/c728955cb64eab713eea485e2ebb3839.jpg Скачать фильм Летящие сквозь ночь через торрент бесплантно в хорошем качестве Описание: История о группе исследователей, которые отправляются на далекую планету, чтобы найти загадочное существо, но в пути сталкиваются ... 9.8 10 6
Торрент: Зарегистрирован [2018-12-14 11:45] · скачан: 63 раз
Статус: √ проверено
Размер: 5.47 GB
Как cкачать? Как скачать Летящие сквозь ночь через торрент | qTorrent

% Раздел Тема Автор DL S | L
Зарубежные сериалы [ 12.76 GB ] Летящие сквозь ночь / Nightflyers / Сезон: 1 / Серии: 1-10 из 10 [2018 WEBRip 1080p] MVO [NewStudio] bober100 Скачать
1 | 0
Зарубежные сериалы [ 12.71 GB ] Летящие сквозь ночь / Nightflyers / Сезон: 1 / Серия: 1-10 из 10 [2018 WEBRip 720p] [DVO] killermax2013 Скачать
1 | 0
Зарубежные сериалы [ 14.15 GB ] Летящие сквозь ночь / Nightflyers / Сезон 1 / Серии 1-10 из 10 [2018 WEB-DL 1080p] MVO [Jaskier] bober100 Скачать
1 | 0
Зарубежные сериалы [ 5.75 GB ] Летящие сквозь ночь / Nightflyers / Сезон: 1 / Серии: 1-10 из 10 [2018 WEB-DLRip] MVO [LostFilm] bober100 Скачать
2 | 0
Зарубежные сериалы [ 13.24 GB ] Летящие сквозь ночь / Nightflyers / Сезон: 1 / Серии: 1-10 из 10 [2018 WEB-DL 1080p] MVO [LostFilm] bober100 Скачать
1 | 0
Зарубежные сериалы [ 5.31 GB ] Летящие сквозь ночь / Nightflyers / Manifest / Сезон: 1 / Серии: 1-10 из 10 [2018 WEBRip] [MVO] killermax2013 Скачать
1 | 0
Зарубежные сериалы [ 5.19 GB ] Летящие сквозь ночь / Nightflyers / Сезон: 1 / Серия: 1-10 из 10 [2018 WEB-DLRip] [MVO] killermax2013 Скачать
2 | 0


>> Регистрируемся здесь <<






Отзывы и комментарии о схеме читаем и пишем здесь: ---> Отзывы и комментарии о схеме

Новые благодарочки в телеграм довольных пользователей:
скриншот   скриншот   скриншот   скриншот   скриншот
    Дорогой пользователь! Огромная просьба, поблагодарите релизера, оцените раздачу и оставьте свои комментарий, если Вы скачали Летящие сквозь ночь через торрент бесплатно! Внесите свою лепту в развитие PiratBit!
    Комментировать посты могут только пользователи прошедшие не сложную регистрацию
    Показать сообщения:    

    Летящие сквозь ночь через торрент
    Скачать бесплатно Летящие сквозь ночь
    Летящие сквозь ночь скачать торрент
    Летящие сквозь ночь смотреть онлайн
    Cкачать фильм Летящие сквозь ночь бесплатно
    Летящие сквозь ночь скачать торрент в хорошем качестве
    Летящие сквозь ночь смотреть онлайн бесплатно в хорошем качестве


    Вы не можете начинать темы
    Вы не можете отвечать на сообщения
    Вы не можете редактировать свои сообщения
    Вы не можете удалять свои сообщения
    Вы не можете голосовать в опросах
    Вы не можете прикреплять файлы к сообщениям
    Вы можете скачивать файлы