Ссылка на приватное зеркало нашего сайта всего за 1$. Внимание количество ограничено!!!

2 сезон

iTunes

1 сезон

1

2 сезон

2 сезон

iTunes

1 сезон

RePack

30

Новинка

ВАЖНО

ИГРА 18+

pack

RePack

MK11
pack

Забери бонус

RePack

jed

!!Акция!!

Alien_Rage

RePack

fifa19

RePack

Assassins Creed: Odyssey

RePack

NEED FOR SPEED™ PAYBACK

4 сезон

9 сезон

Бесстыжие 9 сезон

Все сериалы

все сериалы на PB.wtf

RePack

FAR CRY 5
  

Защитник / The Protector / Сезон: 1 / Серии: 1-10 из 10 (Умут Арал, Гонендж Уяник, Джан Эвренол) [2018, фантастика, фэнтези, боевик, WEB-DLRip] MVO [Netflix] pb.wtf

Защитник через торрент pb.wtf

Раздают: 1 [ 0 KB/s ]
Размер: 4.34 GB | Добавлен: 1 год 11 мес. назад | Торрент скачан:49 раз
Скачать  

14-12-2018 12:06 Защитник Скачать торрент  

Защитник / The Protector Год выпуска: 2018
Страна: Турция
Жанр: фантастика, фэнтези, боевик
Продолжительность: ~ 00:35:00
Перевод: Профессиональный многоголосый | Netflix
Субтитры: отсутствуют

Режиссер: Умут Арал, Гонендж Уяник, Джан Эвренол

rating

В ролях:

Чагатай Улусой, Айча Айшин Туран, Мехмет Куртулуш, Хазар Эргючлю, Окан Ялабык, Юрдаэр Окур, Мехмет Иилмаз Ак, Джихат Сувариоглу, Джанкат Айдос

Описание:

Простой парень Хакан узнает, что его миссия - оберегать Стамбул. Он и не собирался становиться героем, но когда узнает, что город может быть разрушен некими бессмертными из прошлого, то у парня не остается другого выбора.


Качество: WEB-DLRip
Формат: AVI

Видео: XviD, ~ 1600 Кбит/с, 720x360
Аудио: MP3, 2 ch, 192 Кбит/с
скриншот   скриншот   скриншот   скриншот  скриншот  

Общее
Полное имя : E:\The Protector\01 The Protector - Hakan Muhafız.avi
Формат : AVI
Формат/Информация : Audio Video Interleave
Размер файла : 515 Мбайт
Продолжительность : 45 м. 32 с.
Общий поток : 1580 Кбит/сек

Видео
Идентификатор : 0
Формат : MPEG-4 Visual
Профиль формата : Simple@L5
Параметр BVOP формата : Нет
Параметр QPel формата : Нет
Параметр GMC формата : Без точки перехода
Параметр матрицы формата : Default (H.263)
Идентификатор кодека : XVID
Идентификатор кодека/Подсказка : XviD
Продолжительность : 45 м. 32 с.
Битрейт : 1379 Кбит/сек
Ширина : 720 пикселей
Высота : 360 пикселей
Соотношение сторон : 2,000
Частота кадров : 24,000 кадра/сек
Цветовое пространство : YUV
Субдискретизация насыщенности : 4:2:0
Битовая глубина : 8 бит
Тип развёртки : Прогрессивная
Метод сжатия : С потерями
Бит/(Пиксели*Кадры) : 0.222
Размер потока : 449 Мбайт (87%)
Библиотека кодирования : XviD 73

Аудио
Идентификатор : 1
Формат : MPEG Audio
Версия формата : Version 1
Профиль формата : Layer 3
Настройки формата : Joint stereo
Идентификатор кодека : 55
Идентификатор кодека/Подсказка : MP3
Продолжительность : 45 м. 26 с.
Вид битрейта : Постоянный
Битрейт : 192 Кбит/сек
Каналы : 2 канала
Частота : 44,1 КГц
Метод сжатия : С потерями
Размер потока : 62,3 Мбайт (12%)
Выравнивание : Разделение по промежуткам
Продолжительность промежутка : 42 мс. (1,00 видеокадр)
Время предзагрузки промежутка : 500 мс.

Когда раздача ведётся путём добавления новых серий, при каждом добавлении создётся новый торрент. Чтобы начать докачку новой серии, пользователям необходимо сделать следующее:
(1) остановить скачивание,
(2) удалить старый торрент у себя из клиента (старые серии удалять не надо),
(3) скачать новый торрент и запустить его у себя в клиенте вместо старого, при этом указать клиенту путь в старую папку, куда и должно происходить скачивание новых серий.
Ваш клиент при этом должен произвести хеширование (проверку) старой папки (если не производит сам - помогите ему сделать это), и будет докачивать только те серии, которых у вас ещё нет. Старые серии при этом не удаляются, а продолжают раздаваться!
Eсли вы уже удалили старые серии, то предотвратить повторную закачку старых серий можно, отжав галочку в соответсвующих местах при запуске нового торрента. По возможности, желательно не удалять старые серии как можно дольше, чтобы релизёр не столько продолжал раздавать старые серии, а смог сконцентрироваться на новых.
Закрыть
pb.wtf



Скачать Защитник через торрент http://img14.lostpic.net/2018/12/14/ef83b356ca00c10edd9fb1787176060d.jpg Скачать фильм Защитник через торрент бесплантно в хорошем качестве Описание: Простой парень Хакан узнает, что его миссия - оберегать Стамбул. Он и не собирался становиться героем, но когда узнает, что город ... 8.2 10 5
Торрент: Зарегистрирован [2018-12-16 09:58] · скачан: 49 раз
Статус: √ проверено
Размер: 4.34 GB
Как cкачать? Как скачать Защитник через торрент | qTorrent

% Раздел Тема Автор DL S | L
Зарубежные сериалы [ 12.69 GB ] Защитник / The Protector / Hakan: Muhafiz / Сезон 3 / Серии: 1-7 из 7 [2020 WEB-DL 1080p] [MVO] killermax2013 Скачать
1 | 0
Зарубежные сериалы [ 12.87 GB ] Защитник / Hakan: Muhafiz / The Protector / Сезон: 2 / Серии: 1-8 из 8 [2019 WEB-DL 1080p] [MVO] killermax2013 Скачать
1 | 0
Фильмы с украинским озвучиванием [ 19.52 GB ] Захисник / Защитник / The Protector / Сезон: 2 / Серии: 1-8 из 8 [2019 WEB-DL 1080p] MVO [DniproFilm] bober100 Скачать
1 | 0
Зарубежные сериалы [ 19.01 GB ] Защитник / The Protector / Сезон: 2 / Серии: 1-8 из 8 [2019 WEBRip 1080p] MVO [Octopus] bober100 Скачать
1 | 0
Зарубежные сериалы [ 13.69 GB ] Защитник / Hakan: Muhafiz / The Protector / Сезон: 1 / Серии: 1-10 из 10 [2018 WEB-DL 1080p] [MVO] killermax2013 Скачать
1 | 0
Зарубежные сериалы [ 5.97 GB ] Защитник / The Protector / Сезон: 1 / Серии: 1-10 из 10 [2018 WEBRip 720p] MVO [KosharaSerials] bober100 Скачать
1 | 0

28-11-2019 20:33  

Отключить всю рекламу на сайте

18-12-2018 19:29 Защитник Скачать торрент  

Рейтинг сделали турки.Проходняк какой то.Пожалел,что начал смотреть.pb.wtf



    Дорогой пользователь! Огромная просьба, поблагодарите релизера, оцените раздачу и оставьте свои комментарий, если Вы скачали Защитник через торрент бесплатно! Внесите свою лепту в развитие PiratBit!
    Комментировать посты могут только пользователи прошедшие не сложную регистрацию
    Показать сообщения:    

    Защитник через торрент
    Скачать бесплатно Защитник
    Защитник скачать торрент
    Защитник смотреть онлайн
    Cкачать фильм Защитник бесплатно
    Защитник скачать торрент в хорошем качестве
    Защитник смотреть онлайн бесплатно в хорошем качестве


    Вы не можете начинать темы
    Вы не можете отвечать на сообщения
    Вы не можете редактировать свои сообщения
    Вы не можете удалять свои сообщения
    Вы не можете голосовать в опросах
    Вы не можете прикреплять файлы к сообщениям
    Вы можете скачивать файлы