Ссылка на приватное зеркало нашего сайта всего за 1$. Внимание количество ограничено!!!

2 сезон

iTunes

1 сезон

1

2 сезон

2 сезон

iTunes

1 сезон

RePack

30

Новинка

ВАЖНО

ИГРА 18+

pack

RePack

MK11
pack

Забери бонус

RePack

jed

!!Акция!!

Alien_Rage

RePack

fifa19

RePack

Assassins Creed: Odyssey

RePack

NEED FOR SPEED™ PAYBACK

4 сезон

9 сезон

Бесстыжие 9 сезон

Все сериалы

все сериалы на PB.wtf

RePack

FAR CRY 5
  

В клетке / Icebox (Дэниэл Савка) [2018, Драма, WEB-DL 720p] MVO [Амедиа] pb.wtf

В клетке через торрент pb.wtf

Размер: 3.43 GB | Добавлен: 1 год 11 мес. назад | Торрент скачан:34 раза
Скачать  

14-12-2018 12:13 В клетке Скачать торрент  

В клетке / IceboxГод выпуска: 2018
Страна: США
Жанр: Драма
Продолжительность: 01:23:19
Перевод: Профессиональный многоголосый | Амедиа
Субтитры: Русские (Full), Английские (SDH)

Режиссер: Дэниэл Савка

rating

В ролях:

Дженесис Родригес, Энтони Гонсалес, Сара Минник, Кэрри Лазар, Джонни Ортис, Дилан Кенин, Рене Моран, Катя Гомез, Винсент Фуэнтес, Прийом Хайдер и др.

Описание:

Эмоционально опустошающая и очень искренняя драма о 12-летнем Оскаре (Энтони Гонсалес, озвучивший главного героя «Тайны Коко») из Гондураса, ищущем убежище в Америке. Однако попытка пересечь границу заканчивается для него несколькими кругами ада американской системы. Мальчик оказывается в заточении в Центре содержания детей-мигрантов. Таким образом он оказывается лишенным свободы в той стране, которая всегда считалась ее оплотом.

Качество: WEB-DL 720p
Формат: MKV

Видео: MPEG-4 AVC, ~ 5000 Кбит/с, 1280x720
Аудио#1: Русский (AC3, 6 ch, 384 Кбит/с)
Аудио#2: Испанский (Е-AC3, 6 ch, 640 Кбит/с)
скриншот  скриншот  скриншот  

Общее
Уникальный идентификатор : 180276687761944097003529428457493606771 (0x87A006F191F3D37085333B6DEFAFB173)
Полное имя : E:\Icebox.2018.720p.WEB-DLRip.mkv
Формат : Matroska
Версия формата : Version 4 / Version 2
Размер файла : 3,43 Гбайт
Продолжительность : 1 ч. 23 м.
Общий поток : 5891 Кбит/сек
Дата кодирования : UTC 2018-12-14 08:37:33
Программа кодирования : mkvmerge v29.0.0 ('Like It Or Not') 64-bit
Библиотека кодирования : libebml v1.3.6 + libmatroska v1.4.9
Attachments : poster.jpg

Видео
Идентификатор : 1
Формат : AVC
Формат/Информация : Advanced Video Codec
Профиль формата : High@L4.1
Настройки формата : CABAC / 4 Ref Frames
Параметр CABAC формата : Да
Параметр RefFrames формата : 4 кадра
Идентификатор кодека : V_MPEG4/ISO/AVC
Продолжительность : 1 ч. 23 м.
Битрейт : 5000 Кбит/сек
Ширина : 1280 пикселей
Высота : 720 пикселей
Соотношение сторон : 16:9
Режим частоты кадров : Постоянный
Частота кадров : 23,976 (23976/1000) кадра/сек
Цветовое пространство : YUV
Субдискретизация насыщенности : 4:2:0
Битовая глубина : 8 бит
Тип развёртки : Прогрессивная
Бит/(Пиксели*Кадры) : 0.226
Размер потока : 2,83 Гбайт (83%)
Библиотека кодирования : x264 core 132
Настройки программы : cabac=1 / ref=1 / deblock=1:0:0 / analyse=0x3:0x113 / me=hex / subme=2 / psy=1 / psy_rd=1.00:0.00 / mixed_ref=0 / me_range=16 / chroma_me=1 / trellis=1 / 8x8dct=1 / cqm=0 / deadzone=21,11 / fast_pskip=1 / chroma_qp_offset=0 / threads=4 / lookahead_threads=1 / sliced_threads=0 / nr=0 / decimate=1 / interlaced=0 / bluray_compat=0 / constrained_intra=0 / bframes=2 / b_pyramid=2 / b_adapt=1 / b_bias=0 / direct=1 / weightb=1 / open_gop=0 / weightp=1 / keyint=25 / keyint_min=13 / scenecut=40 / intra_refresh=0 / rc_lookahead=1 / rc=abr / mbtree=1 / bitrate=5000 / ratetol=0.1 / qcomp=0.60 / qpmin=1 / qpmax=35 / qpstep=2 / ip_ratio=1.40 / aq=1:1.00
Default : Да
Forced : Нет

Аудио #1
Идентификатор : 2
Формат : AC-3
Формат/Информация : Audio Coding 3
Идентификатор кодека : A_AC3
Продолжительность : 1 ч. 23 м.
Вид битрейта : Постоянный
Битрейт : 384 Кбит/сек
Каналы : 6 каналов
Расположение каналов : Front: L C R, Side: L R, LFE
Частота : 48,0 КГц
Частота кадров : 31,250 кадров/сек (1536 SPF)
Битовая глубина : 16 бит
Метод сжатия : С потерями
Задержка видео : -83 мс.
Размер потока : 229 Мбайт (7%)
Язык : Russian
ServiceKind/String : Complete Main
Default : Да
Forced : Нет

Аудио #2
Идентификатор : 3
Формат : E-AC-3
Формат/Информация : Enhanced Audio Coding 3
Идентификатор кодека : A_EAC3
Продолжительность : 1 ч. 23 м.
Вид битрейта : Постоянный
Битрейт : 640 Кбит/сек
Каналы : 6 каналов
Расположение каналов : Front: L C R, Side: L R, LFE
Частота : 48,0 КГц
Частота кадров : 187,500 кадров/сек (256 SPF)
Метод сжатия : С потерями
Задержка видео : -83 мс.
Размер потока : 381 Мбайт (11%)
Язык : Spanish
ServiceKind/String : Complete Main
Default : Нет
Forced : Нет

Текст #1
Идентификатор : 4
Формат : UTF-8
Идентификатор кодека : S_TEXT/UTF8
Идентификатор кодека/Информация : UTF-8 Plain Text
Продолжительность : 1 ч. 19 м.
Битрейт : 83 бит/сек
ElementCount : 1012
Размер потока : 48,5 Кбайт (0%)
Заголовок : Full
Язык : Russian
Default : Да
Forced : Нет

Текст #2
Идентификатор : 5
Формат : UTF-8
Идентификатор кодека : S_TEXT/UTF8
Идентификатор кодека/Информация : UTF-8 Plain Text
Продолжительность : 1 ч. 18 м.
Битрейт : 17 бит/сек
ElementCount : 463
Размер потока : 9,88 Кбайт (0%)
Заголовок : SDH
Язык : English
Default : Нет
Forced : Нет

pb.wtf



Скачать В клетке через торрент https://b.radikal.ru/b35/1812/01/5a3174c6134d.jpg Скачать фильм В клетке через торрент бесплантно в хорошем качестве Описание: Эмоционально опустошающая и очень искренняя драма о 12-летнем Оскаре (Энтони Гонсалес, озвучивший главного героя «Тайны Коко») из ... 10 10 4
Торрент: Зарегистрирован [2018-12-14 12:13] · скачан: 34 раз
Статус: √ проверено
Размер: 3.43 GB
Как cкачать? Как скачать В клетке через торрент | qTorrent

% Раздел Тема Автор DL S | L
Фильмы (WEB-DL 720p, 1080p) [ 4.02 GB ] В клетке / Icebox [2018 WEB-DL 1080p] MVO [Амедиа] bober100 Скачать
1 | 0

28-11-2019 20:33  

Отключить всю рекламу на сайте

    Дорогой пользователь! Огромная просьба, поблагодарите релизера, оцените раздачу и оставьте свои комментарий, если Вы скачали В клетке через торрент бесплатно! Внесите свою лепту в развитие PiratBit!
    Комментировать посты могут только пользователи прошедшие не сложную регистрацию
    Показать сообщения:    

    В клетке через торрент
    Скачать бесплатно В клетке
    В клетке скачать торрент
    В клетке смотреть онлайн
    Cкачать фильм В клетке бесплатно
    В клетке скачать торрент в хорошем качестве
    В клетке смотреть онлайн бесплатно в хорошем качестве


    Вы не можете начинать темы
    Вы не можете отвечать на сообщения
    Вы не можете редактировать свои сообщения
    Вы не можете удалять свои сообщения
    Вы не можете голосовать в опросах
    Вы не можете прикреплять файлы к сообщениям
    Вы можете скачивать файлы