Ссылка на приватное зеркало нашего сайта всего за 1$. Внимание количество ограничено!!!

2 сезон

iTunes

1 сезон

1

iTunes

iTunes

iTunes

1 сезон

RePack

30

ИГРА 18+

pack

ВАЖНО

!!Акция!!

Alien_RageХит недели

RePack

MK11
pack

Забери бонус

RePack

jed

!!Акция!!

Alien_Rage

RePack

fifa19

RePack

Assassins Creed: Odyssey

RePack

NEED FOR SPEED™ PAYBACK

4 сезон

9 сезон

Бесстыжие 9 сезон

Все сериалы

все сериалы на PB.wtf

RePack

FAR CRY 5
  

Альфа / Alpha (Альберт Хьюз) [2018, драма, приключения, семейный, BDRemux 1080p] MVO (rus, ukr) [Лицензия] pb.wtf

Альфа через торрент pb.wtf

Раздают: 1 [ 0 KB/s ]
Размер: 17.65 GB | Добавлен: 1 год 10 мес. назад | Торрент скачан:140 раз
Скачать  

15-12-2018 02:48 Альфа Скачать торрент  

Альфа / Alpha«История дружбы, изменившей мир»
Год выпуска: 2018
Страна: США
Жанр: драма, приключения, семейный
Продолжительность: 01:36:31
Перевод: Профессиональный многоголосый | Лицензия
Субтитры: Русские (Forced, full), украинские (Full), английские
Режиссер: Альберт Хьюз
В ролях:

Коди Смит-МакФи (Keda), Йоуханнес Хёйкьюр Йоуханнессон (Tau), Марцин Ковальчик (Sigma), Йенс Хультен (Xi), Наташа Мальте (Rho), Спенсер Богерт (Kappa), Мерседес Де Ла Зерда (Nu), Леонор Варела (Shaman Woman), Морган Фриман (рассказчик, озвучка), Прия Раджаратнам (Huntress, слухи), Lucy Ssuubi (Wolf Tribe #2), Нестор де ла Серда (Solutrean Hunter #1, в титрах не указан)
Описание:
20 000 лет назад Земля была холодным и неуютным местом, в котором смерть подстерегала человека на каждом шагу, а жизнь зависела от того, удалось загнать добычу или нет. Молодой охотник из племени, которое по уровню жизни и культуры было одним из самых развитых на планете, оказывается один на один с враждебным миром, полным смертельных опасностей. Ему предстоит взглянуть в лицо своим страхам и найти дорогу домой. И, возможно, от исхода его путешествия зависит судьба всего человечества.
Рейтинг:

MPAA: PG-13 - Детям до 13 лет просмотр не желателен
Качество: BDRemux 1080p
Формат: MKV
Видео: MPEG-4 AVC, 1920x1080, 22.8 Mbit/s, 23.976 fps
Аудио #01: 48 kHz, AC3, 5.1, 640 Kbps | Лицензия | RUS |
Аудио #02: 48 kHz, AC3, 5.1, 640 Kbps | Лицензия | UKR |
Аудио #03: 48 kHz, DTS-HD MA, 5.1, 2138 Kbps | Оригинал | ENG |
Навигация по главам: есть

General
Unique ID : 204280875336266023356813739675184250964 (0x99AF10C3CB31366698D86CBAA86FC054)
Complete name : D:Video111Alpha.2018.BDREMUX.1080p.seleZen.mkv
Format : Matroska
Format version : Version 4
File size : 17.7 GiB
Duration : 1 h 36 min
Overall bit rate mode : Variable
Overall bit rate : 26.2 Mb/s
Movie name : Alpha 2018 from селезень
Encoded date : UTC 2018-12-15 00:21:19
Writing application : mkvmerge v29.0.0 ('Like It Or Not') 64-bit
Writing library : libebml v1.3.6 + libmatroska v1.4.9

Video
ID : 1
Format : AVC
Format/Info : Advanced Video Codec
Format profile : High@L4.1
Format settings : CABAC / 2 Ref Frames
Format settings, CABAC : Yes
Format settings, ReFrames : 2 frames
Format settings, GOP : M=1, N=10
Codec ID : V_MPEG4/ISO/AVC
Duration : 1 h 36 min
Bit rate mode : Variable
Bit rate : 22.8 Mb/s
Width : 1 920 pixels
Height : 1 080 pixels
Display aspect ratio : 16:9
Frame rate mode : Constant
Frame rate : 23.976 (24000/1001) FPS
Color space : YUV
Chroma subsampling : 4:2:0
Bit depth : 8 bits
Scan type : Progressive
Bits/(Pixel*Frame) : 0.458
Stream size : 15.3 GiB (87%)
Language : English
Default : Yes
Forced : No

Audio #1
ID : 2
Format : AC-3
Format/Info : Audio Coding 3
Commercial name : Dolby Digital
Codec ID : A_AC3
Duration : 1 h 36 min
Bit rate mode : Constant
Bit rate : 640 kb/s
Channel(s) : 6 channels
Channel layout : L R C LFE Ls Rs
Sampling rate : 48.0 kHz
Frame rate : 31.250 FPS (1536 SPF)
Bit depth : 16 bits
Compression mode : Lossy
Stream size : 442 MiB (2%)
Title : License
Language : Russian
Service kind : Complete Main
Default : Yes
Forced : Yes

Audio #2
ID : 3
Format : AC-3
Format/Info : Audio Coding 3
Commercial name : Dolby Digital
Codec ID : A_AC3
Duration : 1 h 36 min
Bit rate mode : Constant
Bit rate : 640 kb/s
Channel(s) : 6 channels
Channel layout : L R C LFE Ls Rs
Sampling rate : 48.0 kHz
Frame rate : 31.250 FPS (1536 SPF)
Bit depth : 16 bits
Compression mode : Lossy
Stream size : 442 MiB (2%)
Title : License
Language : Ukrainian
Service kind : Complete Main
Default : No
Forced : No

Audio #3
ID : 4
Format : DTS XLL
Format/Info : Digital Theater Systems
Commercial name : DTS-HD Master Audio
Codec ID : A_DTS
Duration : 1 h 36 min
Bit rate mode : Variable
Bit rate : 2 138 kb/s
Channel(s) : 6 channels
Channel layout : C L R Ls Rs LFE
Sampling rate : 48.0 kHz
Frame rate : 93.750 FPS (512 SPF)
Bit depth : 16 bits
Compression mode : Lossless
Stream size : 1.44 GiB (8%)
Title : Original
Language : English
Default : No
Forced : No

Text #1
ID : 5
Format : UTF-8
Codec ID : S_TEXT/UTF8
Codec ID/Info : UTF-8 Plain Text
Duration : 1 h 34 min
Bit rate : 0 b/s
Count of elements : 4
Stream size : 139 Bytes (0%)
Title : Forced
Language : Russian
Default : Yes
Forced : Yes

Text #2
ID : 6
Format : UTF-8
Codec ID : S_TEXT/UTF8
Codec ID/Info : UTF-8 Plain Text
Duration : 1 h 34 min
Bit rate : 10 b/s
Count of elements : 214
Stream size : 7.42 KiB (0%)
Title : Full
Language : Russian
Default : No
Forced : No

Text #3
ID : 7
Format : UTF-8
Codec ID : S_TEXT/UTF8
Codec ID/Info : UTF-8 Plain Text
Duration : 1 h 34 min
Bit rate : 11 b/s
Count of elements : 219
Stream size : 8.08 KiB (0%)
Title : Full
Language : Ukrainian
Default : No
Forced : No

Text #4
ID : 8
Format : UTF-8
Codec ID : S_TEXT/UTF8
Codec ID/Info : UTF-8 Plain Text
Duration : 1 h 24 min
Bit rate : 6 b/s
Count of elements : 214
Stream size : 4.31 KiB (0%)
Title : English Forced
Language : English
Default : No
Forced : No

Text #5
ID : 9
Format : UTF-8
Codec ID : S_TEXT/UTF8
Codec ID/Info : UTF-8 Plain Text
Duration : 1 h 24 min
Bit rate : 6 b/s
Count of elements : 214
Stream size : 4.31 KiB (0%)
Title : Full
Language : English
Default : No
Forced : No

Menu
00:00:00.000 : en:1
00:07:43.713 : en:2
00:10:56.071 : en:3
00:16:56.639 : en:4
00:21:43.299 : en:5
00:25:54.967 : en:6
00:32:36.618 : en:7
00:38:19.251 : en:8
00:42:37.383 : en:9
00:47:54.323 : en:10
00:54:07.404 : en:11
00:59:27.222 : en:12
01:07:08.975 : en:13
01:14:08.727 : en:14
01:18:56.264 : en:15
01:25:42.294 : en:16
pb.wtf



Скачать Альфа через торрент https://b.radikal.ru/b41/1811/6a/1c9933ba7f00.jpg Скачать фильм Альфа через торрент бесплантно в хорошем качестве Описание: 20 000 лет назад Земля была холодным и неуютным местом, в котором смерть подстерегала человека на каждом шагу, а жизнь зависела ... 9.8 10 6
Info! Золотая раздача, скачанное не засчитывается.
Торрент: Зарегистрирован [2018-12-15 02:48] · скачан: 140 раз
Статус: √ проверено
Размер: 17.65 GB
Как cкачать? Как скачать Альфа через торрент | qTorrent

% Раздел Тема Автор DL S | L
Порно фильмы с сюжетом [ 1.67 GB ] Альфа-Самец / Alpha Male [2020 All Sex Feature WEB-DL] bashai5 Скачать
3 | 0
Фильмы 2018 [DVDrip, WEB-DLRip, HDrip] (DUB, MVO) [ 750 MB ] Альфа / Alpha [2018 HDRip] MVO [] bober100 Скачать
4 | 0
Зарубежные Мультфильмы (BDRip 1080p, 720p, Blu-ray, BD-Remux) [ 20.78 GB ] Яблочное зернышко: Проект Альфа / Appleseed Alpha [2014 BD Remux Любительский ] aradox Скачать
3 | 0
Зарубежные сериалы [ 20.22 GB ] Альфа-дом / Alpha House / Сезон: 2 / Серии: 1-10 из 10 [2014 WEB-DL 1080p] [MVO] killermax2013 Скачать
1 | 0
Зарубежные сериалы [ 21.34 GB ] Альфа-дом / Alpha House / Сезон: 1 / Серии: 1-11 из 11 [2013 WEBRip 1080p] [MVO] killermax2013 Скачать
1 | 0
Ultra HD (UHD: 2K, 4K, 8K) — видео сверхвысокой чёткости [ 15.27 GB ] Альфа / Alpha [2018 UHD WEBRip 2160p] MVO [] bober100 Скачать
2 | 0
Фильмы 2018 [DVDrip, WEB-DLRip, HDrip] (DUB, MVO) [ 1.46 GB ] Альфа / Alpha [2018 BDRip] MVO [] Twi7ter Скачать
4 | 0

28-11-2019 20:33  

Отключить всю рекламу на сайте

15-12-2018 06:22 Альфа Скачать торрент  

Горяче жду сильную 4к версиюpb.wtf



22-07-2019 20:00 Альфа Скачать торрент  

Неплохой фильм.pb.wtf



    Дорогой пользователь! Огромная просьба, поблагодарите релизера, оцените раздачу и оставьте свои комментарий, если Вы скачали Альфа через торрент бесплатно! Внесите свою лепту в развитие PiratBit!
    Комментировать посты могут только пользователи прошедшие не сложную регистрацию
    Показать сообщения:    

    Альфа через торрент
    Скачать бесплатно Альфа
    Альфа скачать торрент
    Альфа смотреть онлайн
    Cкачать фильм Альфа бесплатно
    Альфа скачать торрент в хорошем качестве
    Альфа смотреть онлайн бесплатно в хорошем качестве


    Вы не можете начинать темы
    Вы не можете отвечать на сообщения
    Вы не можете редактировать свои сообщения
    Вы не можете удалять свои сообщения
    Вы не можете голосовать в опросах
    Вы не можете прикреплять файлы к сообщениям
    Вы можете скачивать файлы