Ссылка на приватное зеркало нашего сайта всего за 1$. Внимание количество ограничено!!!

2 сезон

iTunes

1 сезон

1

2 сезон

2 сезон

iTunes

1 сезон

RePack

30

Новинка

ВАЖНО

ИГРА 18+

pack

RePack

MK11
pack

Забери бонус

RePack

jed

!!Акция!!

Alien_Rage

RePack

fifa19

RePack

Assassins Creed: Odyssey

RePack

NEED FOR SPEED™ PAYBACK

4 сезон

9 сезон

Бесстыжие 9 сезон

Все сериалы

все сериалы на PB.wtf

RePack

FAR CRY 5
  

Мир Дикого запада / Westworld / Сезон: 2 / Серии: 1-10 из 10 (Джонатан Нолан, Джей Джей Абрамс, Лиза Джой) [2018, фантастика, триллер, вестерн, UHD BDRemux 2160p] DUB [Amedia] pb.wtf

Мир Дикого запада через торрент pb.wtf

Раздают: 5 [ 1 MB/s ]
Размер: 197.84 GB | Добавлен: 1 год 11 мес. назад | Торрент скачан:71 раз
Скачать  

15-12-2018 11:39 Мир Дикого запада Скачать торрент  

Мир Дикого Запада / Westworld«Здесь начинается жизнь»
Год выпуска: 2018
Страна: США
Жанр: фантастика, драма, детектив, вестерн
Продолжительность: 10 x ~ 01:00:00
Перевод: Дублированный [Кравец по заказу Amedia]
Субтитры: Русские (Full, Forced), английские (Full)
Режиссер: Джонатан Нолан , Фред Туа , Джонни Кэмпбелл
В ролях:

Эван Рэйчел Вуд (Dolores Abernathy), Тэнди Ньютон (Maeve Millay), Джеффри Райт (Bernard Lowe), Джеймс Марсден (Teddy Flood), Эд Харрис (Man in Black), Талула Райли (Angela), Луис Хертэм (Peter Abernathy), Энтони Хопкинс (Dr. Robert Ford), Дэниэл ТуФизерс (Ghost Nation Warrior), Люк Хемсворт (Ashley Stubbs), Анджела Сарафян (Clementine Pennyfeather), Джимми Симпсон (William)
Описание:
В футуристическом парке развлечений «Мир Дикого Запада» специально сконструированные андроиды выполняют любые прихоти посетителей, чтобы те чувствовали безнаказанность и полную свободу действий. Если робота убили - не беда, техники его починят, сотрут память и снова поставят в строй, навстречу новому дню и новым людским прихотям. Но оказывается, что далеко не все роботы теряют воспоминания.
Рейтинг:

Качество: UHD BDRemux 2160p
Формат: MKV
Видео: HEVC HDR, ~ 37 Мбит/с, 3840x2160, 23.976 кадр/с
Аудио №1: Russian / Dolby Digital Audio / 5.1 / 48 kHz / 640 kbps Дубляж Кравец
Аудио №2: English / TrueHD+Atmos / 7.1 / 48 kHz / 2799 kbps Original
Навигация по главам: есть
General
Unique ID : 269157445584896324647074242537621081736 (0xCA7DD6A2BCBAC18EBCF3C573A25CCE88)
Complete name : W:\Downloads\Releases\WestWorld.Season 2\Westworld.S02E01.BDRemux.HEVC.HDR.2160p.mkv
Format : Matroska
Format version : Version 4 / Version 2
File size : 19.9 GiB
Duration : 1 h 9 min
Overall bit rate mode : Variable
Overall bit rate : 40.9 Mb/s
Encoded date : UTC 2018-12-13 18:04:59
Writing application : mkvmerge v29.0.0 ('Like It Or Not') 64-bit
Writing library : libebml v1.3.6 + libmatroska v1.4.9

Video
ID : 1
Format : HEVC
Format/Info : High Efficiency Video Coding
Format profile : Main 10@L5.1@High
Codec ID : V_MPEGH/ISO/HEVC
Duration : 1 h 9 min
Bit rate : 37.4 Mb/s
Width : 3 840 pixels
Height : 2 160 pixels
Display aspect ratio : 16:9
Frame rate mode : Constant
Frame rate : 23.976 (24000/1001) FPS
Color space : YUV
Chroma subsampling : 4:2:0 (Type 2)
Bit depth : 10 bits
Bits/(Pixel*Frame) : 0.188
Stream size : 18.2 GiB (91%)
Default : Yes
Forced : No
Color range : Limited
Color primaries : BT.2020
Transfer characteristics : PQ
Matrix coefficients : BT.2020 non-constant
Mastering display color pri : Display P3
Mastering display luminance : min: 0.0050 cd/m2, max: 4000 cd/m2
Maximum Content Light Level : 735 cd/m2
Maximum Frame-Average Light : 91 cd/m2

Audio #1
ID : 2
Format : AC-3
Format/Info : Audio Coding 3
Codec ID : A_AC3
Duration : 1 h 9 min
Bit rate mode : Constant
Bit rate : 640 kb/s
Channel(s) : 6 channels
Channel positions : Front: L C R, Side: L R, LFE
Sampling rate : 48.0 kHz
Frame rate : 31.250 FPS (1536 SPF)
Bit depth : 16 bits
Compression mode : Lossy
Delay relative to video : -9 ms
Stream size : 318 MiB (2%)
Title : DUB Кравец 640 kbps
Language : Russian
Service kind : Complete Main
Default : Yes
Forced : No

Audio #2
ID : 3
Format : TrueHD
Format profile : TrueHD+Atmos / TrueHD
Codec ID : A_TRUEHD
Duration : 1 h 9 min
Bit rate mode : Variable
Bit rate : 2 799 kb/s
Maximum bit rate : 4 158 kb/s
Channel(s) : Object Based / 8 channels
Channel positions : Object Based / Front: L C R, Side: L R, Back: L R, LFE
Sampling rate : / 48.0 kHz
Frame rate : 1 200.000 FPS (40 SPF)
Compression mode : Lossless
Delay relative to video : 1 ms
Stream size : 1.36 GiB (7%)
Title : English TrueHD Atmos 7.1 (UHD Blu-ray)
Language : English
Default : No
Forced : No

Text #1
ID : 4
Format : UTF-8
Codec ID : S_TEXT/UTF8
Codec ID/Info : UTF-8 Plain Text
Duration : 43 min 44 s
Bit rate : 1 b/s
Count of elements : 6
Stream size : 507 Bytes (0%)
Title : Forced
Language : Russian
Default : Yes
Forced : No

Text #2
ID : 5
Format : UTF-8
Codec ID : S_TEXT/UTF8
Codec ID/Info : UTF-8 Plain Text
Duration : 1 h 6 min
Bit rate : 50 b/s
Count of elements : 610
Stream size : 24.9 KiB (0%)
Title : Full
Language : Russian
Default : No
Forced : No

Text #3
ID : 6
Format : UTF-8
Codec ID : S_TEXT/UTF8
Codec ID/Info : UTF-8 Plain Text
Duration : 1 h 6 min
Bit rate : 35 b/s
Count of elements : 560
Stream size : 17.2 KiB (0%)
Title : Full
Language : English
Default : No
Forced : No

Menu
00:00:00.000 : en:Chapter 1
00:01:42.435 : en:Chapter 2
00:13:59.630 : en:Chapter 3
00:23:11.181 : en:Chapter 4
00:33:50.319 : en:Chapter 5
00:46:59.483 : en:Chapter 6
00:56:51.074 : en:Chapter 7
01:03:58.376 : en:Chapter 8
01:08:24.391 : en:Chapter 9
pb.wtf



Скачать Мир Дикого запада через торрент https://b.radikal.ru/b41/1812/a6/a506c6dbd8e9.png Скачать фильм Мир Дикого запада через торрент бесплантно в хорошем качестве Описание: В футуристическом парке развлечений «Мир Дикого Запада» специально сконструированные андроиды выполняют любые прихоти ... 10 10 5
Info! Золотая раздача, скачанное не засчитывается.
Торрент: Зарегистрирован [2018-12-15 11:39] · скачан: 71 раз
Статус: √ проверено
Размер: 197.84 GB
Как cкачать? Как скачать Мир Дикого запада через торрент | qTorrent

% Раздел Тема Автор DL S | L
Зарубежные сериалы [ 58.73 GB ] Мир дикого запада / Westworld / Сезон: 2 / Серии: 1-10 из 10 [2018 WEBRip 1080p] [MVO] killermax2013 Скачать
1 | 0
Зарубежные сериалы [ 19.86 GB ] Мир Дикого запада / Westworld / Сезон: 2 / Серии: 1-10 из 10 [2018 WEBRip 720p] MVO [Good People] bober100 Скачать
1 | 0
Зарубежные сериалы [ 7.77 GB ] Мир Дикого запада / Westworld / Сезон: 2 / Серии: 1-10 из 10 [2018 WEB-DLRip] MVO [Good People] bober100 Скачать
1 | 0
Зарубежные сериалы [ 19.44 GB ] Мир дикого запада / Westworld / Сезон: 2 / Серии: 1-10 из 10 [2018 WEB-DL 720p] [MVO] killermax2013 Скачать
1 | 0
Зарубежные сериалы [ 7.7 GB ] Мир дикого запада / Westworld / Сезон: 2 / Серии: 1-10 из 10 [2018 WEB-DLRip] [MVO] killermax2013 Скачать
1 | 0
Зарубежные сериалы [ 8.16 GB ] Мир дикого запада / Westworld / Сезон: 2 / Серии: 1-10 из 10 [2018 WEB-DLRip] DUB [Amedia] bober100 Скачать
5 | 2
Зарубежные сериалы [ 19.74 GB ] Мир дикого запада / Westworld / Сезон: 2 / Серии: 1-10 из 10 [2018 WEB-DL 720p] DUB [Amedia] bober100 Скачать
2 | 0

28-11-2019 20:33  

Отключить всю рекламу на сайте

16-12-2018 08:50 Мир Дикого запада Скачать торрент  

Самый крутой сериал, который я виделpb.wtf



    Дорогой пользователь! Огромная просьба, поблагодарите релизера, оцените раздачу и оставьте свои комментарий, если Вы скачали Мир Дикого запада через торрент бесплатно! Внесите свою лепту в развитие PiratBit!
    Комментировать посты могут только пользователи прошедшие не сложную регистрацию
    Показать сообщения:    

    Мир Дикого запада через торрент
    Скачать бесплатно Мир Дикого запада
    Мир Дикого запада скачать торрент
    Мир Дикого запада смотреть онлайн
    Cкачать фильм Мир Дикого запада бесплатно
    Мир Дикого запада скачать торрент в хорошем качестве
    Мир Дикого запада смотреть онлайн бесплатно в хорошем качестве


    Вы не можете начинать темы
    Вы не можете отвечать на сообщения
    Вы не можете редактировать свои сообщения
    Вы не можете удалять свои сообщения
    Вы не можете голосовать в опросах
    Вы не можете прикреплять файлы к сообщениям
    Вы можете скачивать файлы