Всегда рабочее зеркало без VPN и Proxy просто перед .vidak.icu напиши любое слово или цифру, Пример http://nqdx.vidak.icu

iTunes

2 сезон

1 сезон

1

1 сезон

iTunes

2 сезон

13

1 сезон

Deluxe

pack

Рекомендуем

Пиратка

30

ВАЖНО

RePack

MK11

RePack

jed

RePack

fifa19

RePack

RDR2

RePack

NEED FOR SPEED™ PAYBACK

Кинопоиск HD

6 сезон

 Острые козырьки 6 сезон

Все сериалы

все сериалы на PB.wtf

RePack

FAR CRY 5

Anonymous, нам критически не хватает 5601 руб. на оплату серверов и переферии за Апрель, помоги нам пожалуйста, вся надежда только на тебя. В благодарность мы отключим тебе всю рекламу на сайте!

×
  
Magnet ссылка

Страна приливов / Tidelands / Сезон 1 / Серии 1-8 (8) (Стефен Ирвин, Ли МакГрат) [2018, фэнтези, драма, криминал, WEBRip 1080p] [MVO] (OMSKBIRD) pb.wtf

Страна приливов через торрент pb.wtf

Размер: 12.59 GB | Добавлен: 3 года 5 мес. назад | Торрент скачан:12 раз
Смотреть онлайн Страна приливов | Скачать    Ребята, помогите собрать деньги на оплату серверов!!!

16-12-2018 07:31 Страна приливов Скачать торрент  


Страна приливов / Tidelands
Год выпуска • 2018
Страна • Австралия
Жанр • фэнтези, драма, криминал
Продолжительность • ~00:44:00
Перевод
    • Любительский (многоголосый, закадровый) "OMSKBIRD records"

Создатель • Стефен Ирвин, Ли МакГрат
В ролях • Шарлотта Бест, Дастин Клер, Маттиас Инвуд, Аарон Якубенко, Мадлен Мэдден, Питер О’Брайэн, Эльза Патаки и др.
Описание • Бывшая преступница возвращается домой в маленькую деревеньку Орфелин Бэй. Спокойной жизни не суждено состояться: вскоре неподалеку всплывет тело местного рыбака, а героиня столкнется с интересным феноменом — орудующей в прибрежной зоне группой таинственных человекоамфибий.

rating

Качество: WEBRip 1080p
Формат: MKV
Видео: MPEG-4 AVC / ~ 4600 kbps / 1920х1080p / 25.000 fps / 16:9 / ~ 0.090 bit/pixel / Main Level 4.0
Аудио:
Русский / Dolby Digital 5.1 / 48 kHz / 384 kbps
English / Dolby Digital 5.1 / 48 kHz / 384
Субтитры: Eng, Rus / SRT

Сэмпл
скриншот  скриншот  скриншот  

General
Unique ID : 230703952094784817539876680364488313609 (0xAD8FF707CD087524B8902EF0B70ECB09)
Complete name : H:\Мои Документы\Видео\РАЗДАЧИ\ТАЙДЛЭНДС\Tidelands S01 WEBRip 1080p (OMSKBIRD\Tidelands S01E01 WEBRip 1080p (OMSKBIRD.mkv
Format : Matroska
Format version : Version 2
File size : 1.58 GiB
Duration : 42 min 4 s
Overall bit rate mode : Variable
Overall bit rate : 5 369 kb/s
Encoded date : UTC 2018-12-14 19:24:36
Writing application : mkvmerge v4.0.0 ('The Stars were mine') сборка от Jun 6 2010 16:18:42
Writing library : libebml v1.0.0 + libmatroska v1.0.0

Video
ID : 1
Format : AVC
Format/Info : Advanced Video Codec
Format profile : Main@L4
Format settings, CABAC : Yes
Format settings, RefFrames : 3 frames
Codec ID : V_MPEG4/ISO/AVC
Duration : 42 min 4 s
Bit rate mode : Variable
Bit rate : 4 640 kb/s
Maximum bit rate : 6 960 kb/s
Width : 1 920 pixels
Height : 1 080 pixels
Display aspect ratio : 16:9
Frame rate mode : Constant
Frame rate : 25.000 FPS
Color space : YUV
Chroma subsampling : 4:2:0
Bit depth : 8 bits
Scan type : Progressive
Bits/(Pixel*Frame) : 0.090
Stream size : 1.32 GiB (84%)
Writing library : x264 core 148 r2715 7e75228
Encoding settings : cabac=1 / ref=3 / deblock=1:0:0 / analyse=0x1:0x111 / me=umh / subme=10 / psy=1 / psy_rd=1.00:0.00 / mixed_ref=1 / me_range=24 / chroma_me=1 / trellis=2 / 8x8dct=0 / cqm=0 / deadzone=21,11 / fast_pskip=1 / chroma_qp_offset=-2 / threads=8 / lookahead_threads=1 / sliced_threads=0 / nr=0 / decimate=1 / interlaced=0 / bluray_compat=0 / stitchable=1 / constrained_intra=0 / bframes=2 / b_pyramid=0 / b_adapt=2 / b_bias=0 / direct=3 / weightb=1 / open_gop=0 / weightp=2 / keyint=50 / keyint_min=26 / scenecut=0 / intra_refresh=0 / rc_lookahead=50 / rc=2pass / mbtree=1 / bitrate=4640 / ratetol=1.0 / qcomp=0.50 / qpmin=6 / qpmax=51 / qpstep=4 / cplxblur=20.0 / qblur=0.5 / vbv_maxrate=6960 / vbv_bufsize=9280 / nal_hrd=vbr / filler=0 / ip_ratio=1.40 / aq=1:1.00
Default : No
Forced : No

Audio #1
ID : 2
Format : AC-3
Format/Info : Audio Coding 3
Format settings, Endianness : Big
Codec ID : A_AC3
Duration : 42 min 4 s
Bit rate mode : Constant
Bit rate : 384 kb/s
Channel(s) : 6 channels
Channel positions : Front: L C R, Side: L R, LFE
Sampling rate : 48.0 kHz
Frame rate : 31.250 FPS (1536 SPF)
Bit depth : 16 bits
Compression mode : Lossy
Stream size : 116 MiB (7%)
Language : Russian
Service kind : Complete Main
Default : Yes
Forced : No

Audio #2
ID : 3
Format : AC-3
Format/Info : Audio Coding 3
Format settings, Endianness : Big
Codec ID : A_AC3
Duration : 42 min 4 s
Bit rate mode : Constant
Bit rate : 384 kb/s
Channel(s) : 6 channels
Channel positions : Front: L C R, Side: L R, LFE
Sampling rate : 48.0 kHz
Frame rate : 31.250 FPS (1536 SPF)
Bit depth : 16 bits
Compression mode : Lossy
Stream size : 116 MiB (7%)
Language : English
Service kind : Complete Main
Default : No
Forced : No

Text #1
ID : 4
Format : UTF-8
Codec ID : S_TEXT/UTF8
Codec ID/Info : UTF-8 Plain Text
Title : Russian [Full]
Language : Russian
Default : No
Forced : No

Text #2
ID : 5
Format : UTF-8
Codec ID : S_TEXT/UTF8
Codec ID/Info : UTF-8 Plain Text
Title : English [SDH]
Language : English
Default : No
Forced : No

Внимание! Раздача ведётся путём добавления новых серий; при каждом добавлении создётся новый торрент. Чтобы начать докачку новой серии, пользователям необходимо сделать следующее:
Остановить скачивание.
Удалить старый торрент у себя из клиента (старые серии удалять не надо).
Скачать новый торрент и запустить его у себя в клиенте вместо старого, при этом указать клиенту путь в старую папку куда и должно происходить скачивание новых серий.
Ваш клиент при этом должен произвести хеширование (проверку) старой папки (если не производит сам - помогите ему сделать это), и будет докачивать только те серии которых у вас ещё нет. Старые серии при этом не удаляются, а продолжают раздаваться!
Eсли вы уже удалили старые серии, то предотвратить повторную закачку старых серий можно, отжав галочку в соответсвующих местах при запуске нового торрента. По возможности, желательно не удалять старые серии как можно дольше чтобы релизёр не столько продолжал раздавать старые серии, а смог сконцентрироваться на новых.
pb.wtf



Скачать Страна приливов через торрент https://i106.fastpic.ru/big/2018/1214/73/3141fddc1d266691ae67ec882e455573.jpg Скачать, смотреть онлайн Страна приливов бесплантно в хорошем качестве Описание • Бывшая преступница возвращается домой в маленькую деревеньку Орфелин Бэй. Спокойной жизни не суждено состояться: вскоре ... 5 10 1
Торрент: Зарегистрирован [2018-12-21 09:08] · скачан: 12 раз
Статус: √ проверено
Размер: 12.59 GB
Как cкачать? Как скачать Страна приливов через торрент | UTorrent

% Раздел Тема Автор DL S | L
Зарубежные сериалы [ 4.15 GB ] Страна приливов / Tidelands / Сезон 1 / Серии 1-8 [2018 WEBRip] [MVO] killermax2013 Скачать
1 | 0
Зарубежные сериалы [ 13.79 GB ] Страна приливов / Tidelands / Сезон 1 / Серии 1-8 [2018 WEB-DL 1080p] [MVO] killermax2013 Скачать
1 | 0
Зарубежные сериалы [ 15.1 GB ] Страна приливов / Tidelands / Сезон 1 / Серии 1-8 [2018 WEB-DL 1080p] [MVO] killermax2013 Скачать
1 | 0
Зарубежные сериалы [ 3.2 GB ] Страна приливов / Tidelands / Сезон 1 / Серии 1-8 [2018 WEBRip] [MVO] killermax2013 Скачать
1 | 0
Зарубежные сериалы [ 14.84 GB ] Страна приливов / Tidelands / Сезон 1 / Серии 1-8 [2018 WEBRip 1080p] [MVO] killermax2013 Скачать
1 | 0
Зарубежные сериалы [ 12.29 GB ] Страна приливов / Tidelands / Сезон 1 / Серии 1-8 [2018 WEBRip 1080p] [Sub Rus] killermax2013 Скачать
1 | 0


Последний раз редактировалось: killermax2013 (2018-12-21 09:08), всего редактировалось 1 раз

28-11-2019 20:33  

Отключить всю рекламу на сайте

16-12-2018 20:10 Страна приливов Скачать торрент  

И в каком месте здесь Любительский (многоголосый, закадровый) "OMSKBIRD records"? только English!!!pb.wtf



16-12-2018 23:26 Страна приливов Скачать торрент  

Bolo писал(а):

И в каком месте здесь Любительский (многоголосый, закадровый) "OMSKBIRD records"? только English!!!

смотрим MIpb.wtf



    Дорогой пользователь! Огромная просьба, поблагодарите релизера, оцените раздачу и оставьте свои комментарий, если Вы скачали Страна приливов через торрент бесплатно!
    Комментировать посты могут только пользователи прошедшие не сложную регистрацию
    Показать сообщения:    

    Страна приливов через торрент
    Скачать бесплатно Страна приливов
    Страна приливов скачать торрент
    Страна приливов смотреть онлайн
    Cкачать фильм Страна приливов бесплатно
    Страна приливов скачать торрент в хорошем качестве
    Страна приливов смотреть онлайн бесплатно в хорошем качестве


    Вы не можете начинать темы
    Вы не можете отвечать на сообщения
    Вы не можете редактировать свои сообщения
    Вы не можете удалять свои сообщения
    Вы не можете голосовать в опросах
    Вы не можете прикреплять файлы к сообщениям
    Вы можете скачивать файлы