Ссылка на приватное зеркало нашего сайта всего за 1$. Внимание количество ограничено!!!

2 сезон

iTunes

1 сезон

1

2 сезон

2 сезон

iTunes

1 сезон

RePack

30

Ultimate

ВАЖНО

ИГРА 18+

pack

RePack

MK11
pack

Забери бонус

RePack

jed

!!Акция!!

Alien_Rage

RePack

fifa19

RePack

Assassins Creed: Odyssey

RePack

NEED FOR SPEED™ PAYBACK

4 сезон

9 сезон

Бесстыжие 9 сезон

Все сериалы

все сериалы на PB.wtf

RePack

FAR CRY 5
  

Миссис Уилсон / Mrs. Wilson / Сезон: 1 / Серии: 1- 3 из 3 (Ричард Лэкстон) [2018, драма, детектив, биография, HDTVRip 720p] [MVO] (Jaskier) pb.wtf

Миссис Уилсон через торрент pb.wtf

Размер: 2.55 GB | Добавлен: 1 год 9 мес. назад | Торрент скачан:8 раз
Скачать  

16-12-2018 09:43 Миссис Уилсон Скачать торрент  

Миссис Уилсон / Mrs. Wilson

Год выпуска: 2018
Страна: США
Жанр: драма, детектив, биография
Продолжительность: ~ 00:55:00
Перевод: Профессиональный (многоголосый закадровый) | Jaskier

Режиссёр: Ричард Лэкстон

В ролях: Рут Уилсон, Иэн Глен, Отто Фаррант, Фиона Шоу, Кили Хоуз, Кэлам Линч, Анупам Кхер, Патрик Кеннеди, Йен МакЭлхинни, Джой Ричардсон, Элизабет Райдер, Софи Харкнесс

Описание: Действие сериала разворачивается в 1940-1960-х годах в Лондоне. Элисон Уилсон — самая обычная женщина, супруга писателя-фантаста Алека Уилсона. Её жизнь переворачивается с ног на ногу, когда муж внезапно умирает: на пороге дома Элисон появляется женщина, которая утверждает, что она не кто иная как настоящая миссис Уилсон. Вскоре выясняется, что Алек был вовсе не писателем, а секретным агентом. Пытаясь докопаться до правды о своём супруге, Элисон погружается все глубже в мрачный мир тайн.



Качество: HDTVRip 720p
Формат: MKV
Видео: X264, ~ 1355 kbps, 1280х538, 25 fps
Аудио 1: AC3, 48,0 КГц, 6 ch, 384 kbps - RUS
Аудио 2: AC3, 48,0 КГц, 6 ch, 384 kbps - ENG
Субтитры: нет
Общее
Уникальный идентификатор : 252717953032923462952189146093906006526 (0xBE1FB5131F58E87FAA3222B7C58B91FE)
Полное имя : V:\1ONGOING\Mrs.Wilson. Season 1 (HDTV l 720p l JASKiER)\Mrs.Wilson.S01E01.720p.Jaskier.mkv
Формат : Matroska
Версия формата : Version 2
Размер файла : 869 Мбайт
Продолжительность : 56 м.
Общий поток : 2159 Кбит/сек
Дата кодирования : UTC 2018-12-13 15:22:51
Программа кодирования : mkvmerge v7.8.0 ('River Man') 32bit built on Apr 3 2015 12:11:22
Библиотека кодирования : libebml v1.3.1 + libmatroska v1.4.2

Видео
Идентификатор : 1
Формат : AVC
Формат/Информация : Advanced Video Codec
Профиль формата : High@L4.1
Параметр CABAC формата : Да
Параметр ReFrames формата : 5 кадров
Идентификатор кодека : V_MPEG4/ISO/AVC
Продолжительность : 56 м.
Битрейт : 1348 Кбит/сек
Ширина : 1280 пикселей
Высота : 538 пикселей
Соотношение сторон : 2,40:1
Режим частоты кадров : Постоянный
Частота кадров : 25,000 кадров/сек
Цветовое пространство : YUV
Субдискретизация насыщенности : 4:2:0
Битовая глубина : 8 бит
Тип развёртки : Прогрессивная
Бит/(Пиксели*Кадры) : 0.078
Размер потока : 543 Мбайт (62%)
Библиотека кодирования : x264 core 157 r2935 545de2f
Настройки программы : cabac=1 / ref=5 / deblock=1:0:0 / analyse=0x3:0x113 / me=hex / subme=8 / psy=1 / psy_rd=1.00:0.00 / mixed_ref=1 / me_range=16 / chroma_me=1 / trellis=2 / 8x8dct=1 / cqm=0 / deadzone=21,11 / fast_pskip=1 / chroma_qp_offset=-2 / threads=12 / lookahead_threads=2 / sliced_threads=0 / nr=0 / decimate=1 / interlaced=0 / bluray_compat=0 / constrained_intra=0 / bframes=3 / b_pyramid=2 / b_adapt=1 / b_bias=0 / direct=3 / weightb=1 / open_gop=0 / weightp=2 / keyint=250 / keyint_min=25 / scenecut=40 / intra_refresh=0 / rc_lookahead=50 / rc=crf / mbtree=1 / crf=18.0 / qcomp=0.60 / qpmin=0 / qpmax=69 / qpstep=4 / ip_ratio=1.40 / aq=1:1.00
Язык : English
Default : Да
Forced : Нет

Аудио #1
Идентификатор : 2
Формат : AC-3
Формат/Информация : Audio Coding 3
Расширение режима : CM (complete main)
Параметр Endianness формата : Big
Идентификатор кодека : A_AC3
Продолжительность : 56 м.
Вид битрейта : Постоянный
Битрейт : 384 Кбит/сек
Каналы : 6 каналов
Расположение каналов : Front: L C R, Side: L R, LFE
Частота : 48,0 КГц
Частота кадров : 31,250 кадров/сек (1536 spf)
Метод сжатия : С потерями
Размер потока : 155 Мбайт (18%)
Заголовок : Jaskier
Язык : Russian
Default : Да
Forced : Нет

Аудио #2
Идентификатор : 3
Формат : AC-3
Формат/Информация : Audio Coding 3
Расширение режима : CM (complete main)
Параметр Endianness формата : Big
Идентификатор кодека : A_AC3
Продолжительность : 56 м.
Вид битрейта : Постоянный
Битрейт : 384 Кбит/сек
Каналы : 6 каналов
Расположение каналов : Front: L C R, Side: L R, LFE
Частота : 48,0 КГц
Частота кадров : 31,250 кадров/сек (1536 spf)
Метод сжатия : С потерями
Размер потока : 155 Мбайт (18%)
Язык : English
Default : Нет
Forced : Нет
скриншот  скриншот  скриншот  
Когда раздача ведётся путём добавления новых серий, при каждом добавлении создётся новый торрент. Чтобы начать докачку новой серии, пользователям необходимо сделать следующее:
(1) остановить скачивание,
(2) удалить старый торрент у себя из клиента (старые серии удалять не надо),
(3) скачать новый торрент и запустить его у себя в клиенте вместо старого, при этом указать клиенту путь в старую папку, куда и должно происходить скачивание новых серий.
Ваш клиент при этом должен произвести хеширование (проверку) старой папки (если не производит сам - помогите ему сделать это), и будет докачивать только те серии, которых у вас ещё нет. Старые серии при этом не удаляются, а продолжают раздаваться!
Eсли вы уже удалили старые серии, то предотвратить повторную закачку старых серий можно, отжав галочку в соответсвующих местах при запуске нового торрента. По возможности, желательно не удалять старые серии как можно дольше, чтобы релизёр не столько продолжал раздавать старые серии, а смог сконцентрироваться на новых.
pb.wtf



Скачать Миссис Уилсон через торрент https://i108.fastpic.ru/big/2018/1213/bd/1a67863e6daddc7e83a3d021b41a93bd.png Скачать фильм Миссис Уилсон через торрент бесплантно в хорошем качестве Описание: Действие сериала разворачивается в 1940-1960-х годах в Лондоне. Элисон Уилсон — самая обычная женщина, супруга писателя-фантаста ... 5 10 2
Торрент: Зарегистрирован [2019-01-31 17:07] · скачан: 8 раз
Статус: √ проверено
Размер: 2.55 GB
Как cкачать? Как скачать Миссис Уилсон через торрент | qTorrent

% Раздел Тема Автор DL S | L
Зарубежные сериалы [ 3.8 GB ] Миссис Уилсон / Mrs. Wilson / Сезон: 1 / Серии: 1-3 из 3 [2018 биография HDTVRip 720p] [MVO] killermax2013 Скачать
1 | 0
Зарубежные сериалы [ 5.32 GB ] Миссис Уилсон / Mrs. Wilson / Сезон: 1 / Серии: 1-3 из 3 [2018 биография HDTV 1080p] MVO [TVShows] bober100 Скачать
1 | 0
Зарубежные сериалы [ 3.59 GB ] Миссис Уилсон / Mrs. Wilson / Сезон: 1 / Серии: 1-2 из 3 [2018 биография HDTV 1080p] [MVO] killermax2013 Скачать
1 | 0
Зарубежные сериалы [ 1.96 GB ] Миссис Уилсон / Mrs. Wilson / Сезон: 1 / Серии: 1-3 из 3 [2018 биография HDTVRip] [MVO] killermax2013 Скачать
1 | 0
Зарубежные сериалы [ 4.87 GB ] Миссис Уилсон / Mrs. Wilson / Сезон: 1 / Серии: 1-3 из 3 [2018 биография HDTV 1080p] 2x[Sub] killermax2013 Скачать
1 | 0

28-11-2019 20:33  

Отключить всю рекламу на сайте

    Дорогой пользователь! Огромная просьба, поблагодарите релизера, оцените раздачу и оставьте свои комментарий, если Вы скачали Миссис Уилсон через торрент бесплатно! Внесите свою лепту в развитие PiratBit!
    Комментировать посты могут только пользователи прошедшие не сложную регистрацию
    Показать сообщения:    

    Миссис Уилсон через торрент
    Скачать бесплатно Миссис Уилсон
    Миссис Уилсон скачать торрент
    Миссис Уилсон смотреть онлайн
    Cкачать фильм Миссис Уилсон бесплатно
    Миссис Уилсон скачать торрент в хорошем качестве
    Миссис Уилсон смотреть онлайн бесплатно в хорошем качестве


    Вы не можете начинать темы
    Вы не можете отвечать на сообщения
    Вы не можете редактировать свои сообщения
    Вы не можете удалять свои сообщения
    Вы не можете голосовать в опросах
    Вы не можете прикреплять файлы к сообщениям
    Вы можете скачивать файлы