Ссылка на приватное зеркало нашего сайта всего за 1$. Внимание количество ограничено!!!

2 сезон

iTunes

1 сезон

1

2 сезон

2 сезон

iTunes

1 сезон

RePack

30

Ultimate

ВАЖНО

ИГРА 18+

pack

RePack

MK11
pack

Забери бонус

RePack

jed

!!Акция!!

Alien_Rage

RePack

fifa19

RePack

Assassins Creed: Odyssey

RePack

NEED FOR SPEED™ PAYBACK

4 сезон

9 сезон

Бесстыжие 9 сезон

Все сериалы

все сериалы на PB.wtf

RePack

FAR CRY 5
  

Миссис Уилсон / Mrs. Wilson / Сезон: 1 / Серии: 1-3 из 3 (Ричард Лэкстон) [2018, драма, детектив, биография, HDTVRip] [MVO] (Jaskier) pb.wtf

Миссис Уилсон через торрент pb.wtf

Размер: 1.96 GB | Добавлен: 1 год 9 мес. назад | Торрент скачан:11 раз
Скачать  

16-12-2018 09:45 Миссис Уилсон Скачать торрент  

Миссис Уилсон / Mrs. Wilson

Год выпуска: 2018
Страна: Великобритания, США
Жанр: драма, детектив, биография
Продолжительность: ~ 00:55:00
Перевод: Профессиональный (многоголосый закадровый) | Jaskier

Режиссёр: Ричард Лэкстон

В ролях: Рут Уилсон, Иэн Глен, Отто Фаррант, Фиона Шоу, Кили Хоуз, Кэлам Линч, Анупам Кхер, Патрик Кеннеди, Йен МакЭлхинни, Джой Ричардсон, Элизабет Райдер, Софи Харкнесс

Описание: Действие сериала разворачивается в 1940-1960-х годах в Лондоне. Элисон Уилсон — самая обычная женщина, супруга писателя-фантаста Алека Уилсона. Её жизнь переворачивается с ног на ногу, когда муж внезапно умирает: на пороге дома Элисон появляется женщина, которая утверждает, что она не кто иная как настоящая миссис Уилсон. Вскоре выясняется, что Алек был вовсе не писателем, а секретным агентом. Пытаясь докопаться до правды о своём супруге, Элисон погружается все глубже в мрачный мир тайн.



Качество: HDTVRip
Формат: AVI
Видео: XviD, ~ 1400 kbps, 720x304, 25 fps
Аудио 1: MP3, 48,0 КГц, 2 ch, 128 kbps - RUS
Аудио 2: MP3, 48,0 КГц, 2 ch, 128 kbps - ENG
Субтитры: нет
Общее
Полное имя : V:\1ONGOING\Mrs.Wilson. Season 1 (HDTV l 400p l JASKiER)\Mrs.Wilson.S01E01.400p.Jaskier.avi
Формат : AVI
Формат/Информация : Audio Video Interleave
Размер файла : 672 Мбайт
Продолжительность : 56 м.
Общий поток : 1670 Кбит/сек
Программа кодирования : VirtualDubMod 1.5.10.3 | www.virtualdub-fr.org || (build 2550/release)
Библиотека кодирования : VirtualDubMod build 2550/release

Видео
Идентификатор : 0
Формат : MPEG-4 Visual
Профиль формата : Advanced Simple@L5
Параметр BVOP формата : 2
Параметр QPel формата : Нет
Параметр GMC формата : Без точки перехода
Параметр матрицы формата : Выборочная
Идентификатор кодека : XVID
Идентификатор кодека/Подсказка : XviD
Продолжительность : 56 м.
Битрейт : 1400 Кбит/сек
Ширина : 720 пикселей
Высота : 304 пикселя
Соотношение сторон : 2,35:1
Частота кадров : 25,000 кадров/сек
Цветовое пространство : YUV
Субдискретизация насыщенности : 4:2:0
Битовая глубина : 8 бит
Тип развёртки : Прогрессивная
Метод сжатия : С потерями
Бит/(Пиксели*Кадры) : 0.256
Размер потока : 563 Мбайт (84%)
Библиотека кодирования : XviD 73

Аудио #1
Идентификатор : 1
Формат : MPEG Audio
Версия формата : Version 1
Профиль формата : Layer 3
Режим : Joint stereo
Расширение режима : MS Stereo
Идентификатор кодека : 55
Идентификатор кодека/Подсказка : MP3
Продолжительность : 56 м.
Вид битрейта : Постоянный
Битрейт : 128 Кбит/сек
Каналы : 2 канала
Частота : 48,0 КГц
Метод сжатия : С потерями
Размер потока : 51,5 Мбайт (8%)
Выравнивание : Соединение по промежуткам
Продолжительность промежутка : 40 мс. (1,00 видеокадр)
Время предзагрузки промежутка : 504 мс.

Аудио #2
Идентификатор : 2
Формат : MPEG Audio
Версия формата : Version 1
Профиль формата : Layer 3
Режим : Joint stereo
Расширение режима : MS Stereo
Идентификатор кодека : 55
Идентификатор кодека/Подсказка : MP3
Продолжительность : 56 м.
Вид битрейта : Постоянный
Битрейт : 128 Кбит/сек
Каналы : 2 канала
Частота : 48,0 КГц
Метод сжатия : С потерями
Размер потока : 51,5 Мбайт (8%)
Выравнивание : Соединение по промежуткам
Продолжительность промежутка : 40 мс. (1,00 видеокадр)
Время предзагрузки промежутка : 504 мс.
скриншот  скриншот  скриншот  
Когда раздача ведётся путём добавления новых серий, при каждом добавлении создётся новый торрент. Чтобы начать докачку новой серии, пользователям необходимо сделать следующее:
(1) остановить скачивание,
(2) удалить старый торрент у себя из клиента (старые серии удалять не надо),
(3) скачать новый торрент и запустить его у себя в клиенте вместо старого, при этом указать клиенту путь в старую папку, куда и должно происходить скачивание новых серий.
Ваш клиент при этом должен произвести хеширование (проверку) старой папки (если не производит сам - помогите ему сделать это), и будет докачивать только те серии, которых у вас ещё нет. Старые серии при этом не удаляются, а продолжают раздаваться!
Eсли вы уже удалили старые серии, то предотвратить повторную закачку старых серий можно, отжав галочку в соответсвующих местах при запуске нового торрента. По возможности, желательно не удалять старые серии как можно дольше, чтобы релизёр не столько продолжал раздавать старые серии, а смог сконцентрироваться на новых.
pb.wtf



Скачать Миссис Уилсон через торрент https://i108.fastpic.ru/big/2018/1213/bd/1a67863e6daddc7e83a3d021b41a93bd.png Скачать фильм Миссис Уилсон через торрент бесплантно в хорошем качестве Описание: Действие сериала разворачивается в 1940-1960-х годах в Лондоне. Элисон Уилсон — самая обычная женщина, супруга писателя-фантаста ... 2 10 2
Торрент: Зарегистрирован [2019-01-31 17:08] · скачан: 11 раз
Статус: √ проверено
Размер: 1.96 GB
Как cкачать? Как скачать Миссис Уилсон через торрент | qTorrent

% Раздел Тема Автор DL S | L
Зарубежные сериалы [ 3.8 GB ] Миссис Уилсон / Mrs. Wilson / Сезон: 1 / Серии: 1-3 из 3 [2018 биография HDTVRip 720p] [MVO] killermax2013 Скачать
1 | 0
Зарубежные сериалы [ 5.32 GB ] Миссис Уилсон / Mrs. Wilson / Сезон: 1 / Серии: 1-3 из 3 [2018 биография HDTV 1080p] MVO [TVShows] bober100 Скачать
1 | 0
Зарубежные сериалы [ 3.59 GB ] Миссис Уилсон / Mrs. Wilson / Сезон: 1 / Серии: 1-2 из 3 [2018 биография HDTV 1080p] [MVO] killermax2013 Скачать
1 | 0
Зарубежные сериалы [ 2.55 GB ] Миссис Уилсон / Mrs. Wilson / Сезон: 1 / Серии: 1- 3 из 3 [2018 биография HDTVRip 720p] [MVO] killermax2013 Скачать
1 | 0
Зарубежные сериалы [ 4.87 GB ] Миссис Уилсон / Mrs. Wilson / Сезон: 1 / Серии: 1-3 из 3 [2018 биография HDTV 1080p] 2x[Sub] killermax2013 Скачать
1 | 0

28-11-2019 20:33  

Отключить всю рекламу на сайте

    Дорогой пользователь! Огромная просьба, поблагодарите релизера, оцените раздачу и оставьте свои комментарий, если Вы скачали Миссис Уилсон через торрент бесплатно! Внесите свою лепту в развитие PiratBit!
    Комментировать посты могут только пользователи прошедшие не сложную регистрацию
    Показать сообщения:    

    Миссис Уилсон через торрент
    Скачать бесплатно Миссис Уилсон
    Миссис Уилсон скачать торрент
    Миссис Уилсон смотреть онлайн
    Cкачать фильм Миссис Уилсон бесплатно
    Миссис Уилсон скачать торрент в хорошем качестве
    Миссис Уилсон смотреть онлайн бесплатно в хорошем качестве


    Вы не можете начинать темы
    Вы не можете отвечать на сообщения
    Вы не можете редактировать свои сообщения
    Вы не можете удалять свои сообщения
    Вы не можете голосовать в опросах
    Вы не можете прикреплять файлы к сообщениям
    Вы можете скачивать файлы