Ссылка на приватное зеркало нашего сайта всего за 1$. Внимание количество ограничено!!!

2 сезон

iTunes

1 сезон

1

2 сезон

2 сезон

iTunes

1 сезон

RePack

30

Ultimate

ВАЖНО

ИГРА 18+

pack

RePack

MK11
pack

Забери бонус

RePack

jed

!!Акция!!

Alien_Rage

RePack

fifa19

RePack

Assassins Creed: Odyssey

RePack

NEED FOR SPEED™ PAYBACK

4 сезон

9 сезон

Бесстыжие 9 сезон

Все сериалы

все сериалы на PB.wtf

RePack

FAR CRY 5
  

Миссис Уилсон / Mrs. Wilson / Сезон: 1 / Серии: 1-2 из 3 (Ричард Лэкстон) [2018, драма, детектив, биография, HDTV 1080p] [MVO] (Jaskier) pb.wtf

Миссис Уилсон через торрент pb.wtf

Размер: 3.59 GB | Добавлен: 1 год 10 мес. назад | Торрент скачан:5 раз
Скачать  

16-12-2018 09:50 Миссис Уилсон Скачать торрент  

Миссис Уилсон / Mrs. Wilson Информация о фильме

Год выпуска: 2018
Жанр: Драма, детектив, биография
Выпущено: Великобритания, Snowed-In Productions,BBC One, Masterpiece
Продолжительность: 00:50:00
Перевод: Профессиональный (многоголосый закадровый) | Jaskier
Субтитры: русские (FOCS Studio), английские

Режиссер: Ричард Лэкстон

В ролях: Иэн Глен, Кили Хоуз, Анупам Кхер, Кэлам Линч, Фиона Шоу, Рут Уилсон, Отто Фаррант, Патрик Кеннеди, Софи Харкнесс, Лоуренс Доэрти

О фильме: Действие сериала разворачивается в 1940-1960-х годах в Лондоне. Элисон Уилсон — самая обычная женщина, супруга писателя-фантаста Алека Уилсона. Её жизнь переворачивается с ног на голову, когда муж внезапно умирает: на пороге дома Элисон появляется женщина, которая утверждает, что она не кто иная как настоящая миссис Уилсон. Вскоре выясняется, что Алек был вовсе не писателем, а секретным агентом. Пытаясь докопаться до правды о своём супруге, Элисон погружается все глубже в мрачный мир тайн.

rating

Файл

Качество: HDTV 1080p
Формат: MKV
Видео: MPEG-4 AVC, ~ 4000 Кбит/с, 1920x816
Аудио 1: русский (AC3, 6 ch, 384 Кбит/с)
Аудио 2: английский (AC3, 6 ch, 384 Кбит/с)
General
Unique ID : 200124133691926428379867959307766666816 (0x968E81942C2BB4F2A637FF2B25791640)
Complete name : E:\Mrs.Wilson.S01.1080p.Jaskier\Mrs.Wilson.S01E01.1080p.Jaskier.mkv
Format : Matroska
Format version : Version 4 / Version 2
File size : 1.79 GiB
Duration : 56 min 44 s
Overall bit rate : 4 528 kb/s
Encoded date : UTC 2018-12-13 17:12:55
Writing application : mkvmerge v9.1.0 ('Little Earthquakes') 32bit
Writing library : libebml v1.3.3 + libmatroska v1.4.4

Video
ID : 3
Format : AVC
Format/Info : Advanced Video Codec
Format profile : High@L4.1
Format settings : CABAC / 4 Ref Frames
Format settings, CABAC : Yes
Format settings, RefFrames : 4 frames
Codec ID : V_MPEG4/ISO/AVC
Duration : 56 min 44 s
Bit rate : 3 669 kb/s
Width : 1 920 pixels
Height : 816 pixels
Display aspect ratio : 2.35:1
Frame rate mode : Constant
Frame rate : 25.000 FPS
Color space : YUV
Chroma subsampling : 4:2:0
Bit depth : 8 bits
Scan type : Progressive
Bits/(Pixel*Frame) : 0.094
Stream size : 1.45 GiB (81%)
Writing library : x264 core 157 r2935 545de2f
Encoding settings : cabac=1 / ref=4 / deblock=1:-2:-2 / analyse=0x3:0x113 / me=hex / subme=8 / psy=1 / psy_rd=1.00:0.00 / mixed_ref=1 / me_range=16 / chroma_me=1 / trellis=2 / 8x8dct=1 / cqm=0 / deadzone=21,11 / fast_pskip=1 / chroma_qp_offset=-2 / threads=12 / lookahead_threads=2 / sliced_threads=0 / nr=0 / decimate=1 / interlaced=0 / bluray_compat=0 / constrained_intra=0 / bframes=3 / b_pyramid=2 / b_adapt=1 / b_bias=0 / direct=3 / weightb=1 / open_gop=0 / weightp=2 / keyint=250 / keyint_min=25 / scenecut=40 / intra_refresh=0 / rc_lookahead=50 / rc=crf / mbtree=1 / crf=17.0 / qcomp=0.60 / qpmin=0 / qpmax=69 / qpstep=4 / ip_ratio=1.40 / aq=1:1.00
Language : English
Default : Yes
Forced : No
Color range : Limited
Matrix coefficients : BT.709

Audio #1
ID : 1
Format : AC-3
Format/Info : Audio Coding 3
Format settings, Endianness : Big
Codec ID : A_AC3
Duration : 56 min 44 s
Bit rate mode : Constant
Bit rate : 384 kb/s
Channel(s) : 6 channels
Channel positions : Front: L C R, Side: L R, LFE
Sampling rate : 48.0 kHz
Frame rate : 31.250 FPS (1536 SPF)
Bit depth : 16 bits
Compression mode : Lossy
Stream size : 156 MiB (8%)
Title : Jaskier
Language : Russian
Service kind : Complete Main
Default : Yes
Forced : No

Audio #2
ID : 2
Format : AC-3
Format/Info : Audio Coding 3
Format settings, Endianness : Big
Codec ID : A_AC3
Duration : 56 min 44 s
Bit rate mode : Constant
Bit rate : 384 kb/s
Channel(s) : 6 channels
Channel positions : Front: L C R, Side: L R, LFE
Sampling rate : 48.0 kHz
Frame rate : 31.250 FPS (1536 SPF)
Bit depth : 16 bits
Compression mode : Lossy
Stream size : 156 MiB (8%)
Language : English
Service kind : Complete Main
Default : No
Forced : No

Text #1
ID : 4
Format : UTF-8
Codec ID : S_TEXT/UTF8
Codec ID/Info : UTF-8 Plain Text
Title : FOCS Studio
Language : Russian
Default : Yes
Forced : No

Text #2
ID : 5
Format : UTF-8
Codec ID : S_TEXT/UTF8
Codec ID/Info : UTF-8 Plain Text
Language : English
Default : No
Forced : No

скриншот  скриншот  скриншот  
Когда раздача ведётся путём добавления новых серий, при каждом добавлении создётся новый торрент. Чтобы начать докачку новой серии, пользователям необходимо сделать следующее:
(1) остановить скачивание,
(2) удалить старый торрент у себя из клиента (старые серии удалять не надо),
(3) скачать новый торрент и запустить его у себя в клиенте вместо старого, при этом указать клиенту путь в старую папку, куда и должно происходить скачивание новых серий.
Ваш клиент при этом должен произвести хеширование (проверку) старой папки (если не производит сам - помогите ему сделать это), и будет докачивать только те серии, которых у вас ещё нет. Старые серии при этом не удаляются, а продолжают раздаваться!
Eсли вы уже удалили старые серии, то предотвратить повторную закачку старых серий можно, отжав галочку в соответсвующих местах при запуске нового торрента. По возможности, желательно не удалять старые серии как можно дольше, чтобы релизёр не столько продолжал раздавать старые серии, а смог сконцентрироваться на новых.
pb.wtf



Скачать Миссис Уилсон через торрент https://i108.fastpic.ru/big/2018/1213/bd/1a67863e6daddc7e83a3d021b41a93bd.png Скачать фильм Миссис Уилсон через торрент бесплантно в хорошем качестве О фильме: Действие сериала разворачивается в 1940-1960-х годах в Лондоне. Элисон Уилсон — самая обычная женщина, супруга писателя-фантаста ... 5 10 1
Торрент: Зарегистрирован [2019-01-20 20:30] · скачан: 5 раз
Статус: √ проверено
Размер: 3.59 GB
Как cкачать? Как скачать Миссис Уилсон через торрент | qTorrent

28-11-2019 20:33  

Отключить всю рекламу на сайте

    Дорогой пользователь! Огромная просьба, поблагодарите релизера, оцените раздачу и оставьте свои комментарий, если Вы скачали Миссис Уилсон через торрент бесплатно! Внесите свою лепту в развитие PiratBit!
    Комментировать посты могут только пользователи прошедшие не сложную регистрацию
    Показать сообщения:    

    Миссис Уилсон через торрент
    Скачать бесплатно Миссис Уилсон
    Миссис Уилсон скачать торрент
    Миссис Уилсон смотреть онлайн
    Cкачать фильм Миссис Уилсон бесплатно
    Миссис Уилсон скачать торрент в хорошем качестве
    Миссис Уилсон смотреть онлайн бесплатно в хорошем качестве


    Вы не можете начинать темы
    Вы не можете отвечать на сообщения
    Вы не можете редактировать свои сообщения
    Вы не можете удалять свои сообщения
    Вы не можете голосовать в опросах
    Вы не можете прикреплять файлы к сообщениям
    Вы можете скачивать файлы