Ссылка на приватное зеркало нашего сайта всего за 1$. Внимание количество ограничено!!!

2 сезон

iTunes

1 сезон

1

2 сезон

2 сезон

iTunes

1 сезон

RePack

30

Новинка

ВАЖНО

ИГРА 18+

pack

RePack

MK11
pack

Забери бонус

RePack

jed

!!Акция!!

Alien_Rage

RePack

fifa19

RePack

Assassins Creed: Odyssey

RePack

NEED FOR SPEED™ PAYBACK

4 сезон

9 сезон

Бесстыжие 9 сезон

Все сериалы

все сериалы на PB.wtf

RePack

FAR CRY 5
  

Путешественники / Travelers / Сезон: 3 / Серии: 1-10 из 10 (Энди Микита, Уильям Варинг, Мартин Вуд) [2018, Фантастика, WEB-DL 1080p] MVO [АРК-ТВ Studio] pb.wtf

Путешественники через торрент pb.wtf

Размер: 15.93 GB | Добавлен: 1 год 11 мес. назад | Торрент скачан:48 раз
Скачать  

16-12-2018 10:07 Путешественники Скачать торрент  

Путешественники / Travelers Год выпуска: 2018
Страна: Канада
Жанр: Фантастика
Продолжительность: ~ 00:45:00 серия
Перевод: Профессиональный (многоголосый) | АРК-ТВ Studio
Субтитры: Английские, испанские, французские и др.

Режиссер: Энди Микита, Уильям Варинг, Мартин Вуд

rating

В ролях:

Неста Купер, Маккензи Портер, Джаред Абрахамсон, Рейли Долмэн, Эрик Маккормак, Патрик Гилмор, Леа Кейрнс, Дж. Алекс Бринсон, Уильям Макдональд, Дженнифер Спенс

Описание:

Через сотни лет оставшиеся в живых люди нашли способ отправлять сознание отдельных личностей в 21-й век. Эти путешественники во времени живут жизнью обычных людей и пытаются спасти человечество от ужасного будущего.

Качество: WEB-DL 1080p
Формат: MKV

Видео: MPEG-4 AVC, ~ 6000 Кбит/с, 1920x1080
Аудио#1 RUS: 48 kHz, AC3, 2 ch, ~192.00 kbps avg
Аудио#2 ENG: 48 kHz, Е-AC3, 6 ch, ~640.00 kbps avg
скриншот  скриншот  скриншот  скриншот  скриншот  

Общее
Уникальный идентификатор : 101380108343710416139096885522584280399 (0x4C451940A17AB1A7E72B39969ACF9D4F)
Полное имя : E:Travelers.S03E01.1080p.NF.WEB-DL.mkv
Формат : Matroska
Версия формата : Version 4
Размер файла : 2,10 Гбайт
Продолжительность : 45 м. 45 с.
Режим общего битрейта : Переменный
Общий поток : 6572 Кбит/сек
Дата кодирования : UTC 2018-12-14 18:00:30
Программа кодирования : mkvmerge v29.0.0 ('Like It Or Not') 64-bit
Библиотека кодирования : libebml v1.3.6 + libmatroska v1.4.9
Attachments : poster.png

Видео
Идентификатор : 1
Формат : AVC
Формат/Информация : Advanced Video Codec
Профиль формата : Main@L4
Настройки формата : CABAC / 3 Ref Frames
Параметр CABAC формата : Да
Параметр RefFrames формата : 3 кадра
Идентификатор кодека : V_MPEG4/ISO/AVC
Продолжительность : 45 м. 21 с.
Вид битрейта : Переменный
Битрейт : 5800 Кбит/сек
Максимальный битрейт : 8700 Кбит/сек
Ширина : 1920 пикселей
Высота : 1080 пикселей
Соотношение сторон : 16:9
Режим частоты кадров : Постоянный
Частота кадров : 23,976 (24000/1001) кадра/сек
Цветовое пространство : YUV
Субдискретизация насыщенности : 4:2:0
Битовая глубина : 8 бит
Тип развёртки : Прогрессивная
Бит/(Пиксели*Кадры) : 0.117
Размер потока : 1,83 Гбайт (87%)
Библиотека кодирования : x264 core 148 r2715 7e75228
Настройки программы : cabac=1 / ref=3 / deblock=1:0:0 / analyse=0x1:0x111 / me=umh / subme=10 / psy=1 / psy_rd=1.00:0.00 / mixed_ref=1 / me_range=24 / chroma_me=1 / trellis=2 / 8x8dct=0 / cqm=0 / deadzone=21,11 / fast_pskip=1 / chroma_qp_offset=-2 / threads=8 / lookahead_threads=1 / sliced_threads=0 / nr=0 / decimate=1 / interlaced=0 / bluray_compat=0 / stitchable=1 / constrained_intra=0 / bframes=2 / b_pyramid=0 / b_adapt=2 / b_bias=0 / direct=3 / weightb=1 / open_gop=0 / weightp=2 / keyint=48 / keyint_min=25 / scenecut=0 / intra_refresh=0 / rc_lookahead=48 / rc=2pass / mbtree=1 / bitrate=5800 / ratetol=1.0 / qcomp=0.50 / qpmin=6 / qpmax=51 / qpstep=4 / cplxblur=20.0 / qblur=0.5 / vbv_maxrate=8700 / vbv_bufsize=11600 / nal_hrd=vbr / filler=0 / ip_ratio=1.40 / aq=1:1.00
Default : Да
Forced : Нет

Аудио #1
Идентификатор : 2
Формат : AC-3
Формат/Информация : Audio Coding 3
Коммерческое название : Dolby Digital
Идентификатор кодека : A_AC3
Продолжительность : 45 м. 21 с.
Вид битрейта : Постоянный
Битрейт : 192 Кбит/сек
Каналы : 2 канала
Channel layout : L R
Частота : 48,0 КГц
Частота кадров : 31,250 кадров/сек (1536 SPF)
Битовая глубина : 16 бит
Метод сжатия : С потерями
Размер потока : 62,3 Мбайт (3%)
Заголовок : АРК-ТВ Studio
Язык : Russian
Default : Нет
Forced : Нет

Аудио #2
Идентификатор : 3
Формат : E-AC-3
Формат/Информация : Enhanced AC-3
Коммерческое название : Dolby Digital Plus
Идентификатор кодека : A_EAC3
Продолжительность : 45 м. 45 с.
Вид битрейта : Постоянный
Битрейт : 640 Кбит/сек
Каналы : 6 каналов
Channel layout : L R C LFE Ls Rs
Частота : 48,0 КГц
Частота кадров : 31,250 кадров/сек (1536 SPF)
Метод сжатия : С потерями
Размер потока : 209 Мбайт (10%)
Заголовок : English
Язык : English
Default : Да
Forced : Нет

Текст #1
Идентификатор : 4
Формат : UTF-8
Идентификатор кодека : S_TEXT/UTF8
Идентификатор кодека/Информация : UTF-8 Plain Text
Продолжительность : 43 м. 53 с.
Битрейт : 83 бит/сек
ElementCount : 738
Размер потока : 26,9 Кбайт (0%)
Заголовок : English [SDH]
Язык : English
Default : Нет
Forced : Нет

Текст #2
Идентификатор : 5
Формат : UTF-8
Идентификатор кодека : S_TEXT/UTF8
Идентификатор кодека/Информация : UTF-8 Plain Text
Продолжительность : 45 м. 5 с.
Битрейт : 70 бит/сек
ElementCount : 657
Размер потока : 23,1 Кбайт (0%)
Заголовок : Castilian [Full]
Язык : Spanish
Default : Нет
Forced : Нет

Текст #3
Идентификатор : 6
Формат : UTF-8
Идентификатор кодека : S_TEXT/UTF8
Идентификатор кодека/Информация : UTF-8 Plain Text
Продолжительность : 45 м. 5 с.
Битрейт : 70 бит/сек
ElementCount : 657
Размер потока : 23,1 Кбайт (0%)
Заголовок : Spanish [Full]
Язык : Spanish
Default : Нет
Forced : Нет

Текст #4
Идентификатор : 7
Формат : UTF-8
Идентификатор кодека : S_TEXT/UTF8
Идентификатор кодека/Информация : UTF-8 Plain Text
Продолжительность : 45 м. 5 с.
Битрейт : 70 бит/сек
ElementCount : 651
Размер потока : 23,3 Кбайт (0%)
Заголовок : French [Full]
Язык : French
Default : Нет
Forced : Нет

Текст #5
Идентификатор : 8
Формат : UTF-8
Идентификатор кодека : S_TEXT/UTF8
Идентификатор кодека/Информация : UTF-8 Plain Text
Продолжительность : 45 м. 5 с.
Битрейт : 75 бит/сек
ElementCount : 646
Размер потока : 24,8 Кбайт (0%)
Заголовок : German [Full]
Язык : German
Default : Нет
Forced : Нет

Текст #6
Идентификатор : 9
Формат : UTF-8
Идентификатор кодека : S_TEXT/UTF8
Идентификатор кодека/Информация : UTF-8 Plain Text
Продолжительность : 45 м. 5 с.
Битрейт : 72 бит/сек
ElementCount : 648
Размер потока : 23,9 Кбайт (0%)
Заголовок : Italian [Full]
Язык : Italian
Default : Нет
Forced : Нет

Текст #7
Идентификатор : 10
Формат : UTF-8
Идентификатор кодека : S_TEXT/UTF8
Идентификатор кодека/Информация : UTF-8 Plain Text
Продолжительность : 45 м. 5 с.
Битрейт : 76 бит/сек
ElementCount : 646
Размер потока : 25,4 Кбайт (0%)
Заголовок : Portuguese [Full]
Язык : Portuguese
Default : Нет
Forced : Нет

Текст #8
Идентификатор : 11
Формат : UTF-8
Идентификатор кодека : S_TEXT/UTF8
Идентификатор кодека/Информация : UTF-8 Plain Text
Продолжительность : 45 м. 5 с.
Битрейт : 63 бит/сек
ElementCount : 646
Размер потока : 21,1 Кбайт (0%)
Заголовок : Brazilian Portuguese [Full]
Язык : Portuguese
Default : Нет
Forced : Нет

Текст #9
Идентификатор : 12
Формат : UTF-8
Идентификатор кодека : S_TEXT/UTF8
Идентификатор кодека/Информация : UTF-8 Plain Text
Продолжительность : 45 м. 5 с.
Битрейт : 66 бит/сек
ElementCount : 637
Размер потока : 22,0 Кбайт (0%)
Заголовок : Polish [Full]
Язык : Polish
Default : Нет
Forced : Нет

Текст #10
Идентификатор : 13
Формат : UTF-8
Идентификатор кодека : S_TEXT/UTF8
Идентификатор кодека/Информация : UTF-8 Plain Text
Продолжительность : 45 м. 5 с.
Битрейт : 70 бит/сек
ElementCount : 659
Размер потока : 23,4 Кбайт (0%)
Заголовок : Turkish [Full]
Язык : Turkish
Default : Нет
Forced : Нет

Текст #11
Идентификатор : 14
Формат : UTF-8
Идентификатор кодека : S_TEXT/UTF8
Идентификатор кодека/Информация : UTF-8 Plain Text
Продолжительность : 45 м. 5 с.
Битрейт : 69 бит/сек
ElementCount : 660
Размер потока : 23,0 Кбайт (0%)
Заголовок : Swedish [Full]
Язык : Swedish
Default : Нет
Forced : Нет

Текст #12
Идентификатор : 15
Формат : UTF-8
Идентификатор кодека : S_TEXT/UTF8
Идентификатор кодека/Информация : UTF-8 Plain Text
Продолжительность : 45 м. 5 с.
Битрейт : 67 бит/сек
ElementCount : 644
Размер потока : 22,2 Кбайт (0%)
Заголовок : Danish [Full]
Язык : Danish
Default : Нет
Forced : Нет

Текст #13
Идентификатор : 16
Формат : UTF-8
Идентификатор кодека : S_TEXT/UTF8
Идентификатор кодека/Информация : UTF-8 Plain Text
Продолжительность : 45 м. 5 с.
Битрейт : 66 бит/сек
ElementCount : 629
Размер потока : 22,1 Кбайт (0%)
Заголовок : Finnish [Full]
Язык : Finnish
Default : Нет
Forced : Нет

Текст #14
Идентификатор : 17
Формат : UTF-8
Идентификатор кодека : S_TEXT/UTF8
Идентификатор кодека/Информация : UTF-8 Plain Text
Продолжительность : 45 м. 5 с.
Битрейт : 64 бит/сек
ElementCount : 644
Размер потока : 21,2 Кбайт (0%)
Заголовок : Dutch [Full]
Язык : Dutch
Default : Нет
Forced : Нет

Текст #15
Идентификатор : 18
Формат : UTF-8
Идентификатор кодека : S_TEXT/UTF8
Идентификатор кодека/Информация : UTF-8 Plain Text
Продолжительность : 45 м. 5 с.
Битрейт : 63 бит/сек
ElementCount : 659
Размер потока : 21,1 Кбайт (0%)
Заголовок : Norwegian [Full]
Язык : Norwegian
Default : Нет
Forced : Нет

Текст #16
Идентификатор : 19
Формат : UTF-8
Идентификатор кодека : S_TEXT/UTF8
Идентификатор кодека/Информация : UTF-8 Plain Text
Продолжительность : 45 м. 5 с.
Битрейт : 122 бит/сек
ElementCount : 661
Размер потока : 40,4 Кбайт (0%)
Заголовок : Greek [Full]
Язык : Greek
Default : Нет
Forced : Нет

Текст #17
Идентификатор : 20
Формат : UTF-8
Идентификатор кодека : S_TEXT/UTF8
Идентификатор кодека/Информация : UTF-8 Plain Text
Продолжительность : 44 м. 8 с.
Битрейт : 108 бит/сек
ElementCount : 695
Размер потока : 35,0 Кбайт (0%)
Заголовок : Hebrew [Full]
Язык : Hebrew
Default : Нет
Forced : Нет

Текст #18
Идентификатор : 21
Формат : UTF-8
Идентификатор кодека : S_TEXT/UTF8
Идентификатор кодека/Информация : UTF-8 Plain Text
Продолжительность : 45 м. 5 с.
Битрейт : 121 бит/сек
ElementCount : 661
Размер потока : 40,1 Кбайт (0%)
Заголовок : Arabic [Full]
Язык : Arabic
Default : Нет
Forced : Нет

Текст #19
Идентификатор : 22
Формат : UTF-8
Идентификатор кодека : S_TEXT/UTF8
Идентификатор кодека/Информация : UTF-8 Plain Text
Продолжительность : 45 м. 5 с.
Битрейт : 72 бит/сек
ElementCount : 656
Размер потока : 23,8 Кбайт (0%)
Заголовок : Romanian [Full]
Язык : Romanian
Default : Нет
Forced : Нет

Текст #20
Идентификатор : 23
Формат : UTF-8
Идентификатор кодека : S_TEXT/UTF8
Идентификатор кодека/Информация : UTF-8 Plain Text
Продолжительность : 45 м. 5 с.
Битрейт : 186 бит/сек
ElementCount : 661
Размер потока : 61,7 Кбайт (0%)
Заголовок : Thai [Full]
Язык : Thai
Default : Нет
Forced : Нет

Текст #21
Идентификатор : 24
Формат : UTF-8
Идентификатор кодека : S_TEXT/UTF8
Идентификатор кодека/Информация : UTF-8 Plain Text
Продолжительность : 45 м. 5 с.
Битрейт : 73 бит/сек
ElementCount : 664
Размер потока : 24,4 Кбайт (0%)
Заголовок : Korean [Full]
Язык : Korean
Default : Нет
Forced : Нет

Текст #22
Идентификатор : 25
Формат : UTF-8
Идентификатор кодека : S_TEXT/UTF8
Идентификатор кодека/Информация : UTF-8 Plain Text
Продолжительность : 45 м. 5 с.
Битрейт : 71 бит/сек
ElementCount : 661
Размер потока : 23,5 Кбайт (0%)
Заголовок : Chinese (Simplified) [Full]
Язык : Chinese
Default : Нет
Forced : Нет

Текст #23
Идентификатор : 26
Формат : UTF-8
Идентификатор кодека : S_TEXT/UTF8
Идентификатор кодека/Информация : UTF-8 Plain Text
Продолжительность : 45 м. 5 с.
Битрейт : 65 бит/сек
ElementCount : 661
Размер потока : 21,8 Кбайт (0%)
Заголовок : Chinese (Traditional) [Full]
Язык : Chinese
Default : Нет
Forced : Нет

Текст #24
Идентификатор : 27
Формат : UTF-8
Идентификатор кодека : S_TEXT/UTF8
Идентификатор кодека/Информация : UTF-8 Plain Text
Продолжительность : 45 м. 5 с.
Битрейт : 60 бит/сек
ElementCount : 709
Размер потока : 19,9 Кбайт (0%)
Заголовок : Japanese [Full]
Язык : Japanese
Default : Нет
Forced : Нет

pb.wtf



Скачать Путешественники через торрент https://d.radikal.ru/d02/1812/4e/e220571b7023.png Скачать фильм Путешественники через торрент бесплантно в хорошем качестве Описание: Через сотни лет оставшиеся в живых люди нашли способ отправлять сознание отдельных личностей в 21-й век. Эти путешественники во ... 10 10 4
Info! Золотая раздача, скачанное не засчитывается.
Торрент: Зарегистрирован [2018-12-16 10:07] · скачан: 48 раз
Статус: √ проверено
Размер: 15.93 GB
Как cкачать? Как скачать Путешественники через торрент | qTorrent

% Раздел Тема Автор DL S | L
Зарубежные сериалы [ 16.54 GB ] Путешественники / Travelers / Сезон: 3 / Серии 1-10 из 10 [2018 WEB-DL 1080p] [MVO] killermax2013 Скачать
1 | 0
Зарубежные сериалы [ 3.41 GB ] Путешественники / Travelers / Сезон: 3 / Серии: 1-10 из 10 [2018 WEB-DLRip-AVC] [MVO] killermax2013 Скачать
1 | 0
Зарубежные сериалы [ 20.25 GB ] Путешественники / Travelers / Сезон: 3 / Серии 1-10 из 10 [2018 WEBRip 1080p] [MVO ] killermax2013 Скачать
1 | 0
Зарубежные сериалы [ 5.52 GB ] Путешественники / Travelers / Сезон: 3 / Серии: 1-10 из 10 [2018 WEB-DLRip] MVO [Netflix] bober100 Скачать
1 | 0

28-11-2019 20:33  

Отключить всю рекламу на сайте

    Дорогой пользователь! Огромная просьба, поблагодарите релизера, оцените раздачу и оставьте свои комментарий, если Вы скачали Путешественники через торрент бесплатно! Внесите свою лепту в развитие PiratBit!
    Комментировать посты могут только пользователи прошедшие не сложную регистрацию
    Показать сообщения:    

    Путешественники через торрент
    Скачать бесплатно Путешественники
    Путешественники скачать торрент
    Путешественники смотреть онлайн
    Cкачать фильм Путешественники бесплатно
    Путешественники скачать торрент в хорошем качестве
    Путешественники смотреть онлайн бесплатно в хорошем качестве


    Вы не можете начинать темы
    Вы не можете отвечать на сообщения
    Вы не можете редактировать свои сообщения
    Вы не можете удалять свои сообщения
    Вы не можете голосовать в опросах
    Вы не можете прикреплять файлы к сообщениям
    Вы можете скачивать файлы