Ссылка на приватное зеркало всего за 1$. Внимание количество ограничено!!!

OK

1+1

iTunes

мы

OK

1

WEB-DLRip

Джокер

Пифагор

Ведьмак / The Witcher сериал

iTunes

ПШазам

ОК

Оно 2

iTunes

30
pack

Вам бонус

ВАЖНО

!!Акция!!

Alien_RageХит недели

RePack

Resident Evil 21

ИГРА 18+

pack

RePack

jed

RePack

fifa19

RePack

Assassins Creed: Odyssey

RePack

NEED FOR SPEED™ PAYBACK

4 сезон

9 сезон

Бесстыжие 9 сезон

Все сериалы

все сериалы на PB.wtf

RePack

FAR CRY 5
  

Разбивающий мечты / Game Breaker: Unawakened City / Po meng you xi (Хань Янь) [2018 г., Боевик, приключения, фантастика, WEBRip, Любительский (многоголосый)] [КОЛОБОК] pb.wtf

Разбивающий мечты через торрент pb.wtf

Размер: 1.37 GB | Добавлен: 1 год 1 мес. назад | Торрент скачан:70 раз
Скачать  

16-12-2018 15:38 Разбивающий мечты Скачать торрент  

Разбивающий мечты / Game Breaker: Unawakened City / Po meng you xi
Год выпуска: 2018
Страна: Китай
Жанр: Боевик, приключения, фантастика
Продолжительность: 01:44:30
Перевод: Любительский (многоголосый) | КОЛОБОК
Субтитры: Присутствуют (Китайские,Английские)

Режиссер: Хань Янь



В ролях: Цао Сивэнь, Гай Юэси, Чэнь Дулин, Чжан Юхао, Тун Давэй, Лю Шаоцун, Сун Вэйлун, Арчи Као, Цзинь Шицзя, Пэн Гуаньин

Описание: Это первый фильм из этой серии. Речь идет о группе молодых людей, приключений в игровом виртуальном мире. Цзян Хань случайно входит в голографическую игру, созданную ее отцом Цзян Шаном. Она встретила холодную Нан Цзи и страстную Су Си, вместе они обнаружили большой секрет, спрятанный в игре. Чтобы спасти игроков, попавших в игру, они втроем объединяются вместе, чтобы победить заговорщиков.

Качество: WEBRip
Формат: AVI
Видео кодек: XviD
Аудио кодек: AC3
Видео: XviD, 720x304 , 23.9fps, 1607 Kbps
Аудио#1: AC3 , 2 ch , 48 kHz , 256 kbps
скриншот   скриншот   скриншот   скриншот  

Общее
Полное имя : D:Dream.Breaker.2018.Pk.WEBRip.14OOMB.avi
Формат : AVI
Формат/Информация : Audio Video Interleave
Размер файла : 1,37 Гбайт
Продолжительность : 1 ч. 44 м.
Общий поток : 1872 Кбит/сек
Программа кодирования : VirtualDubMod 1.5.10.2 (build 2540/release)
Библиотека кодирования : VirtualDubMod build 2540/release

Видео
Идентификатор : 0
Формат : MPEG-4 Visual
Профиль формата : Advanced Simple@L5
Параметр BVOP формата : 2
Параметр QPel формата : Нет
Параметр GMC формата : Без точки перехода
Параметр матрицы формата : Выборочная
Идентификатор кодека : XVID
Идентификатор кодека/Подсказка : XviD
Продолжительность : 1 ч. 44 м.
Битрейт : 1607 Кбит/сек
Ширина : 720 пикселей
Высота : 304 пикселя
Соотношение сторон : 2,35:1
Частота кадров : 23,976 кадра/сек
Цветовое пространство : YUV
Субдискретизация насыщенности : 4:2:0
Битовая глубина : 8 бит
Тип развёртки : Прогрессивная
Метод сжатия : С потерями
Бит/(Пиксели*Кадры) : 0.306
Размер потока : 1,17 Гбайт (86%)
Библиотека кодирования : XviD 1.2.1 (UTC 2008-12-04)

Аудио
Идентификатор : 1
Формат : AC-3
Формат/Информация : Audio Coding 3
Расширение режима : CM (complete main)
Параметр Endianness формата : Big
Идентификатор кодека : 2000
Продолжительность : 1 ч. 44 м.
Вид битрейта : Постоянный
Битрейт : 256 Кбит/сек
Каналы : 2 канала
Расположение каналов : Front: L R
Частота : 48,0 КГц
Битовая глубина : 16 бит
Метод сжатия : С потерями
Размер потока : 191 Мбайт (14%)
Выравнивание : Разделение по промежуткам
Продолжительность промежутка : 42 мс. (1,00 видеокадр)
Время предзагрузки промежутка : 500 мс.

pb.wtf



Скачать Разбивающий мечты через торрент http://pic1.kartinco.top/images/12/y57ca.jpg Скачать фильм Разбивающий мечты через торрент бесплантно в хорошем качестве Описание: Это первый фильм из этой серии. Речь идет о группе молодых людей, приключений в игровом виртуальном мире. Цзян Хань случайно ... 10 10 7
Торрент: Зарегистрирован [2018-12-16 15:38] · скачан: 70 раз
Статус: T временная
Размер: 1.37 GB
Как cкачать? Как скачать Разбивающий мечты через торрент | qTorrent

28-11-2019 20:33  

Отключить всю рекламу на сайте

    Дорогой пользователь! Огромная просьба, поблагодарите релизера, оцените раздачу и оставьте свои комментарий, если Вы скачали Разбивающий мечты через торрент бесплатно! Внесите свою лепту в развитие PiratBit!
    Комментировать посты могут только пользователи прошедшие не сложную регистрацию
    Показать сообщения:    

    Разбивающий мечты через торрент
    Скачать бесплатно Разбивающий мечты
    Разбивающий мечты скачать торрент
    Разбивающий мечты смотреть онлайн
    Cкачать фильм Разбивающий мечты бесплатно
    Разбивающий мечты скачать торрент в хорошем качестве
    Разбивающий мечты смотреть онлайн бесплатно в хорошем качестве


    Вы не можете начинать темы
    Вы не можете отвечать на сообщения
    Вы не можете редактировать свои сообщения
    Вы не можете удалять свои сообщения
    Вы не можете голосовать в опросах
    Вы не можете прикреплять файлы к сообщениям
    Вы можете скачивать файлы