MEGA SALE -50% FORZA HORIZON 4 ULTIMATE+ВСЕ DLC+ОНЛАЙН всего за 599р. 299 руб. (супер цена). Внимание количество ограничено!!!

iTunes

1+1

iTunes

мы

iTunes

1

iTunes

Чернобыль

iTunes

Ральф против интернета

Лицензия

ПШазам

Лицензия

Игра престолов

Лицензия

30
pack

ВАЖНО

!!Акция!!

Alien_RageХит недели

RePack

Resident Evil 21

ИГРА 18+

pack

RePack

Metro:Exodus

!!Акция!!

Alien_Rage

RePack

fifa19

RePack

Assassins Creed: Odyssey

RePack

NEED FOR SPEED™ PAYBACK

3 сезон

9 сезон

Бесстыжие 9 сезон

Все сериалы

все сериалы на PB.wtf

RePack

FAR CRY 5
Ребята, катастрофически не хватает 7730р. для оплаты серверов за АВГУСТ (всвязи с блокировками трафик упал в 3 раза), 1-2р., выручайте.
  

Маленькая барабанщица / The Little Drummer Girl / Сезон: 1 / Серии 1-6 из 6 (Пак Чхан Ук / Park Chan-wook) [2018, триллер, драма, WEB-DL 1080p] [DVO] (Кубик в Кубе) pb.wtf

Маленькая барабанщица через торрент pb.wtf

Размер: 27.71 GB | Добавлен: 9 мес. назад | Торрент скачан:13 раз
Скачать  

16-12-2018 17:59 Маленькая барабанщица Скачать торрент  

Маленькая барабанщица | The Little Drummer Girl
Год выпуска: 2018
Страна: Великобритания, США
Жанр: Триллер, драма
Продолжительность: 00:55:00

Перевод: Профессиональный (двухголосый, закадровый) *Кубик в Кубе*
Режиссёр: Пак Чхан-ук

В ролях: Флоренс Пью, Александр Скарсгард, Майкл Шеннон, Майкл Мошонов, Симона Браун, Клер Холман, Кейт Самптер, Gennady Fleyscher, Амир Хури, Катарина Шюттлер и др.
Описание: На отдыхе в Греции молодая актриса Чарли знакомится с Беккером. Довольно скоро выясняется, что мужчиной движет не любовный интерес. Он — офицер израильской разведки, который втягивает Чарли в смертельно опасную борьбу западных спецслужб с терроризмом в Европе и на Ближнем Востоке.
rating

Релиз --
Работа со звуком: messafan

Качество: WEB-DL 1080p
Формат: MKV
Видео: 1920x1080 at 23.976 fps, MPEG-4 AVC, ~9800 kbps avg
Аудио Rus: AC3, 48.0 KHz, 6 channels, 640 kbps | *Кубик в Кубе*
Аудио Eng: E-AC3, 48.0 KHz, 6 channels, 640 kbps | Original
Субтитры: English
General
Unique ID : 316962874489961909734856498342235241146 (0xEE74D44177371F319F05B4D8C77C7ABA)
Complete name : E:\The.Little.Drummer.Girl.S01.1080p.WEB-DL.KvK.CasStudio.TV\The.Little.Drummer.Girl.S01E01.Episode.1.REPACK.1080p.WEB-DL.KvK.CasStudio.TV.mkv
Format : Matroska
Format version : Version 4 / Version 2
File size : 4.42 GiB
Duration : 56 min 3 s
Overall bit rate : 11.3 Mb/s
Movie name : The Little Drummer Girl 01x01 - release by messafan for CasStudio.TV
Encoded date : UTC 2018-12-08 15:47:46
Writing application : mkvmerge v29.0.0 ('Like It Or Not') 64-bit
Writing library : libebml v1.3.6 + libmatroska v1.4.9

Video
ID : 1
Format : AVC
Format/Info : Advanced Video Codec
Format profile : High@L4
Format settings : CABAC / 4 Ref Frames
Format settings, CABAC : Yes
Format settings, RefFrames : 4 frames
Codec ID : V_MPEG4/ISO/AVC
Duration : 56 min 3 s
Bit rate : 9 791 kb/s
Width : 1 920 pixels
Height : 1 080 pixels
Display aspect ratio : 16:9
Frame rate mode : Constant
Frame rate : 25.000 FPS
Color space : YUV
Chroma subsampling : 4:2:0
Bit depth : 8 bits
Scan type : Progressive
Bits/(Pixel*Frame) : 0.189
Stream size : 3.83 GiB (87%)
Language : English
Default : Yes
Forced : No
Color range : Limited
Color primaries : BT.709
Transfer characteristics : BT.709
Matrix coefficients : BT.709

Audio #1
ID : 2
Format : AC-3
Format/Info : Audio Coding 3
Format settings, Endianness : Big
Codec ID : A_AC3
Duration : 56 min 3 s
Bit rate mode : Constant
Bit rate : 640 kb/s
Channel(s) : 6 channels
Channel positions : Front: L C R, Side: L R, LFE
Sampling rate : 48.0 kHz
Frame rate : 31.250 FPS (1536 SPF)
Bit depth : 16 bits
Compression mode : Lossy
Stream size : 257 MiB (6%)
Title : KvK DD5.1 @ 640kbps
Language : Russian
Service kind : Complete Main
Default : Yes
Forced : No

Audio #2
ID : 3
Format : E-AC-3
Format/Info : Enhanced Audio Coding 3
Format settings, Endianness : Big
Codec ID : A_EAC3
Duration : 56 min 3 s
Bit rate mode : Constant
Bit rate : 640 kb/s
Channel(s) : 6 channels
Channel positions : Front: L C R, Side: L R, LFE
Sampling rate : 48.0 kHz
Frame rate : 187.500 FPS (256 SPF)
Compression mode : Lossy
Stream size : 257 MiB (6%)
Title : English DD5.1 @ 640kbps
Language : English
Service kind : Complete Main
Default : No
Forced : No

Text
ID : 4
Format : UTF-8
Codec ID : S_TEXT/UTF8
Codec ID/Info : UTF-8 Plain Text
Title : SDH
Language : English
Default : No
Forced : No
скриншот  скриншот  скриншот  
pb.wtf



Скачать Маленькая барабанщица через торрент https://i97.fastpic.ru/big/2018/1115/83/aaa6ed831176ead9e6db819f03ee1283.png Скачать фильм Маленькая барабанщица через торрент бесплантно в хорошем качестве Описание: На отдыхе в Греции молодая актриса Чарли знакомится с Беккером. Довольно скоро выясняется, что мужчиной движет не любовный ... 10 10 2
Торрент: Зарегистрирован [2018-12-16 17:59] · скачан: 13 раз
Статус: √ проверено
Размер: 27.71 GB
Как cкачать? Как скачать Маленькая барабанщица через торрент | qTorrent

% Раздел Тема Автор DL S | L
Видео для КПК и Смартфонов [ 1.28 GB ] Маленькая барабанщица / The Little Drummer Girl / Сезон: 1 / Серии 1-6 из 6 [2018 WEB-DLRip КПК] MVO [LostFilm] sergey82 Скачать
1 | 0
Зарубежные сериалы [ 5.73 GB ] Маленькая барабанщица / The Little Drummer Girl / Сезон: 1 / Серии 1-6 из 6 [2018 WEB-DLRip] [MVO] killermax2013 Скачать
1 | 0
Зарубежные сериалы [ 25.94 GB ] Маленькая барабанщица / The Little Drummer Girl / Сезон: 1 / Серии: 1-6 из 6 [2018 WEBRip 1080p] [MVO] killermax2013 Скачать
2 | 0
Зарубежные сериалы [ 25.94 GB ] Маленькая барабанщица / The Little Drummer Girl / Сезон: 1 / Серии 1-6 из 6 [2018 WEB-DL 1080p] [MVO] killermax2013 Скачать
1 | 0
Зарубежные сериалы [ 8.97 GB ] Маленькая барабанщица / The Little Drummer Girl / Сезон: 1 / Серии 1-6 из 6 [2018 WEB-DL 720p] [DVO] killermax2013 Скачать
1 | 0
Зарубежные сериалы [ 4.26 GB ] Маленькая барабанщица / The Little Drummer Girl / Сезон: 1 / Серии 1-6 из 6 [2018 WEB-DLRip] [MVO] killermax2013 Скачать
2 | 0
Зарубежные сериалы [ 7.14 GB ] Маленькая барабанщица / The Little Drummer Girl / Сезон: 1 / Серии 1-6 из 6 [2018 WEB-DLRip 720p] [MVO] killermax2013 Скачать
1 | 0


>> Регистрируемся здесь <<






Отзывы и комментарии о схеме читаем и пишем здесь: ---> Отзывы и комментарии о схеме

Новые благодарочки в телеграм довольных пользователей:
скриншот   скриншот   скриншот   скриншот   скриншот
    Дорогой пользователь! Огромная просьба, поблагодарите релизера, оцените раздачу и оставьте свои комментарий, если Вы скачали Маленькая барабанщица через торрент бесплатно! Внесите свою лепту в развитие PiratBit!
    Комментировать посты могут только пользователи прошедшие не сложную регистрацию
    Показать сообщения:    

    Маленькая барабанщица через торрент
    Скачать бесплатно Маленькая барабанщица
    Маленькая барабанщица скачать торрент
    Маленькая барабанщица смотреть онлайн
    Cкачать фильм Маленькая барабанщица бесплатно
    Маленькая барабанщица скачать торрент в хорошем качестве
    Маленькая барабанщица смотреть онлайн бесплатно в хорошем качестве


    Вы не можете начинать темы
    Вы не можете отвечать на сообщения
    Вы не можете редактировать свои сообщения
    Вы не можете удалять свои сообщения
    Вы не можете голосовать в опросах
    Вы не можете прикреплять файлы к сообщениям
    Вы можете скачивать файлы