2 сезон

iTunes

MVO

1

2 сезон

iTunes

iTunes

1 сезон

RePack

30

Ultimate

ВАЖНО

ИГРА 18+

pack

RePack

MK11
pack

Легкие деньги

RePack

jed

RePack

fifa19

RePack

RDR2

RePack

NEED FOR SPEED™ PAYBACK

4 сезон

9 сезон

Бесстыжие 9 сезон

Все сериалы

все сериалы на PB.wtf

RePack

FAR CRY 5

Anonymous, добрый день, мы не успеваем собрать деньги на оплату серверов за декабрь и январь, помогите нам пожалуйста в это трудное время. В качестве благодарности мы отключим Вам всю рекламу на сайте (укажите свой ник в строку Ваше имя)!

×
  
Magnet ссылка

Амели бежит / Amelie rennt (Тобиаш Виеманн) [2017 г., драма, приключения, HDRip, Профессиональный многоголосый закадровый "СВ Студия"] pb.wtf

Амели бежит через торрент pb.wtf

Размер: 705 MB | Добавлен: 2 года 1 мес. назад | Торрент скачан:12 раз
Скачать  

16-12-2018 18:45 Амели бежит Скачать торрент  

Амели бежит / Amelie rennt
Год выпуска: 2017
Страна: Германия, Италия / Helios Sustainable Films,Hessischer Rundfunk (HR),Lieblingsfilm
Жанр: драма, приключения
Продолжительность: 01:37:00
Перевод: Профессиональный многоголосый закадровый (СВ Студия)

Режиссер: Тобиаш Виеманн

rating

В ролях: Сюзанна Борман, Денис Москитто, Ясмин Табатабай, Давид Бредин, Миа Касало, Самуэль Жирарди, Еремия Ачеампонг, Лео Гапп, Лене Одерих, Шения Пицманн

Описание: Юную Амели, которая страдает астмой, отправляют в клинику в Южном Тироле на лечение. Через какое-то время она планирует побег из этого «ада» - и вскоре находит нового друга. Вместе они пытаются добраться до вершины горы, у которой, согласно старому поверью, Амели сможет исцелиться..

Качество: HDRip
Формат: AVI
Видео кодек: XviD
Аудио кодек: MP3
Видео: 624x264 (2.36:1), 24.000 fps, XviD build 50 ~878 kbps avg, 0.22 bit/pixel
Аудио: 48 kHz, MPEG Layer 3, 2 ch, ~128.00 kbps avg
скриншот   скриншот   скриншот   скриншот  

Общее
Полное имя : F:\ФИЛЬМЫ\Амели бежит.2017.HDRip.avi
Формат : AVI
Формат/Информация : Audio Video Interleave
Размер файла : 705 Мбайт
Продолжительность : 1 ч. 37 м.
Общий поток : 1016 Кбит/сек
Программа кодирования : VirtualDubMod 1.5.10.3 | www.virtualdub-fr.org || (build 2550/release)
Библиотека кодирования : VirtualDubMod build 2550/release

Видео
Идентификатор : 0
Формат : MPEG-4 Visual
Профиль формата : Advanced Simple@L5
Настройки формата : BVOP1
Параметр BVOP формата : 1
Параметр QPel формата : Нет
Параметр GMC формата : Без точки перехода
Параметр матрицы формата : Default (MPEG)
Идентификатор кодека : XVID
Идентификатор кодека/Подсказка : XviD
Продолжительность : 1 ч. 37 м.
Битрейт : 879 Кбит/сек
Ширина : 624 пикселя
Высота : 264 пикселя
Соотношение сторон : 2,35:1
Частота кадров : 24,000 кадра/сек
Цветовое пространство : YUV
Субдискретизация насыщенности : 4:2:0
Битовая глубина : 8 бит
Тип развёртки : Прогрессивная
Метод сжатия : С потерями
Бит/(Пиксели*Кадры) : 0.222
Размер потока : 610 Мбайт (86%)
Библиотека кодирования : XviD 1.2.1 (UTC 2008-12-04)

Аудио
Идентификатор : 1
Формат : MPEG Audio
Версия формата : Version 1
Профиль формата : Layer 3
Настройки формата : Joint stereo / MS Stereo
Идентификатор кодека : 55
Идентификатор кодека/Подсказка : MP3
Продолжительность : 1 ч. 37 м.
Вид битрейта : Постоянный
Битрейт : 128 Кбит/сек
Каналы : 2 канала
Частота : 48,0 КГц
Частота кадров : 41,667 кадра/сек (1152 SPF)
Метод сжатия : С потерями
Размер потока : 88,8 Мбайт (13%)
Выравнивание : Соединение по промежуткам
Продолжительность промежутка : 42 мс. (1,00 видеокадр)
Время предзагрузки промежутка : 504 мс.
Библиотека кодирования : LAME3.99r
Настройки программы : -m j -V 4 -q 2 -lowpass 17 -b 128

pb.wtf



Скачать Амели бежит через торрент http://pic1.kartinco.top/images/12/4fre7.jpg Скачать фильм Амели бежит через торрент бесплантно в хорошем качестве Описание: Юную Амели, которая страдает астмой, отправляют в клинику в Южном Тироле на лечение. Через какое-то время она планирует побег из ... 5 10 1
Торрент: Зарегистрирован [2018-12-16 18:45] · скачан: 12 раз
Статус: √ проверено
Размер: 705 MB
Как cкачать? Как скачать Амели бежит через торрент | UTorrent

% Раздел Тема Автор DL S | L
Фильмы [HD 720p, 1080p] (Хороший звук DUB, MVO) [ 9.73 GB ] Амели бежит / Amelie rennt [2017 BDRip 1080p] MVO [СВ Студия] bober100 Скачать
2 | 0
Фильмы [HD 720p, 1080p] (Хороший звук DUB, MVO) [ 4.59 GB ] Амели бежит / Amelie rennt [2017 BDRip 720p] MVO [СВ Студия] bober100 Скачать
1 | 0
Фильмы 2017 [DVDrip, WEB-DLRip, HDrip] (DUB, MVO) [ 1.47 GB ] Побег Амели / Амели бежит / Amelie rennt [2017 BDRip] [MVO] killermax2013 Скачать
1 | 0
Фильмы (Blu-ray, BD-Remux, HDDVD) [ 19.71 GB ] Побег Амели / Амели бежит / Amelie rennt [2017 BDRemux 1080p] [MVO] killermax2013 Скачать
1 | 0

28-11-2019 20:33  

Отключить всю рекламу на сайте

    Дорогой пользователь! Огромная просьба, поблагодарите релизера, оцените раздачу и оставьте свои комментарий, если Вы скачали Амели бежит через торрент бесплатно! Внесите свою лепту в развитие PiratBit!
    Комментировать посты могут только пользователи прошедшие не сложную регистрацию
    Показать сообщения:    

    Амели бежит через торрент
    Скачать бесплатно Амели бежит
    Амели бежит скачать торрент
    Амели бежит смотреть онлайн
    Cкачать фильм Амели бежит бесплатно
    Амели бежит скачать торрент в хорошем качестве
    Амели бежит смотреть онлайн бесплатно в хорошем качестве


    Вы не можете начинать темы
    Вы не можете отвечать на сообщения
    Вы не можете редактировать свои сообщения
    Вы не можете удалять свои сообщения
    Вы не можете голосовать в опросах
    Вы не можете прикреплять файлы к сообщениям
    Вы можете скачивать файлы