Ссылка на приватное зеркало нашего сайта всего за 1$. Внимание количество ограничено!!!

2 сезон

iTunes

1 сезон

1

iTunes

iTunes

iTunes

1 сезон

RePack

30

ИГРА 18+

pack

ВАЖНО

!!Акция!!

Alien_RageХит недели

RePack

MK11
pack

Забери бонус

RePack

jed

!!Акция!!

Alien_Rage

RePack

fifa19

RePack

Assassins Creed: Odyssey

RePack

NEED FOR SPEED™ PAYBACK

4 сезон

9 сезон

Бесстыжие 9 сезон

Все сериалы

все сериалы на PB.wtf

RePack

FAR CRY 5
  

Год собаки / Серии: 1-4 из 4 (Антон Гойда) [2018, Мелодрама, WEBRip 720p] Русский pb.wtf

Год собаки через торрент pb.wtf

Размер: 4.11 GB | Добавлен: 1 год 10 мес. назад | Торрент скачан:27 раз
Скачать  

17-12-2018 04:36 Год собаки Скачать торрент  

Год собаки \Серии:1-4 из 4\
Год выпуска: 2018
Страна: Украина
Жанр: Мелодрама
Продолжительность: 4 х ~00:45:00
Субтитры: Отсутствуют
Язык:Русский
Режиссер: Антон Гойда

В ролях: Константин Октябрьский, Дана Абызова, Татьяна Малкова, Антон Батырев, Ксения Николаева, Александр Заднепровский

Описание: Саша на много лет забыла о своём красном дипломе юриста, чтобы быть любящей женой и домохозяйкой. Её смысл жизни – муж Костя и их собака Герда. Но мнимое счастье рушится в один день, когда в квартиру приходит незнакомая девица, и муж выставляет Сашу за порог…

Качество: WEBRip 720p
Формат: MKV
Видео кодек: H.264
Аудио кодек: AC3
Видео: MPEG-4 AVC, ~ 3000 Кбит/с, 1280х720
Аудио#1: AC3, 2 ch, 192 Кбит/с
скриншот   скриншот   скриншот   скриншот  
Общее
Уникальный идентификатор : 119048016995443505483120542617261356859 (0x598FD0673A8A3546F572AE0B7874B73B)
Полное имя : E:\торреннты\Год собаки.(2018).WEBRip (720p).by.Nicodem.Files-x\01.Год собаки.(2018).WEBRip (720p).by.Nicodem.Files-x.mkv
Формат : Matroska
Версия формата : Version 4 / Version 2
Размер файла : 1,03 Гбайт
Продолжительность : 46 м. 23 с.
Режим общего битрейта : Переменный
Общий поток : 3175 Кбит/сек
Программа кодирования : Lavf56.36.100
Библиотека кодирования : Lavf56.36.100

Видео
Идентификатор : 1
Формат : AVC
Формат/Информация : Advanced Video Codec
Профиль формата : Main@L3.2
Настройки формата : CABAC / 3 Ref Frames
Параметр CABAC формата : Да
Параметр RefFrames формата : 3 кадра
Идентификатор кодека : V_MPEG4/ISO/AVC
Продолжительность : 46 м. 23 с.
Вид битрейта : Переменный
Битрейт : 2919 Кбит/сек
Максимальный битрейт : 3000 Кбит/сек
Ширина : 1280 пикселей
Высота : 720 пикселей
Соотношение сторон : 16:9
Режим частоты кадров : Постоянный
Частота кадров : 25,000 кадров/сек
Стандарт вещания : NTSC
Цветовое пространство : YUV
Субдискретизация насыщенности : 4:2:0
Битовая глубина : 8 бит
Тип развёртки : Прогрессивная
Бит/(Пиксели*Кадры) : 0.127
Размер потока : 969 Мбайт (92%)
Default : Да
Forced : Нет
Цветовой диапазон : Limited

Аудио
Идентификатор : 2
Формат : AC-3
Формат/Информация : Audio Coding 3
Идентификатор кодека : A_AC3
Продолжительность : 46 м. 23 с.
Вид битрейта : Постоянный
Битрейт : 192 Кбит/сек
Каналы : 2 канала
Расположение каналов : Front: L R
Частота : 48,0 КГц
Частота кадров : 31,250 кадров/сек (1536 SPF)
Битовая глубина : 16 бит
Метод сжатия : С потерями
Задержка видео : -120 мс.
Размер потока : 63,7 Мбайт (6%)
Язык : unknown
ServiceKind/String : Complete Main
Default : Да
Forced : Нет
pb.wtf



Скачать Год собаки через торрент http://pic1.kartinco.top/images/12/3rv1e.jpg Скачать фильм Год собаки через торрент бесплантно в хорошем качестве Описание: Саша на много лет забыла о своём красном дипломе юриста, чтобы быть любящей женой и домохозяйкой. Её смысл жизни – муж Костя и их ... 5 10 1
Торрент: Зарегистрирован [2018-12-17 04:36] · скачан: 27 раз
Статус: √ проверено
Размер: 4.11 GB
Как cкачать? Как скачать Год собаки через торрент | qTorrent

28-11-2019 20:33  

Отключить всю рекламу на сайте

17-12-2018 05:30 Год собаки Скачать торрент  

17-12-2018 06:13 Год собаки Скачать торрент  

удаляй.pb.wtf



17-12-2018 06:15 Год собаки Скачать торрент  

oleg8, добавь отчет MI и зоголовок поправь.pb.wtf



    Дорогой пользователь! Огромная просьба, поблагодарите релизера, оцените раздачу и оставьте свои комментарий, если Вы скачали Год собаки через торрент бесплатно! Внесите свою лепту в развитие PiratBit!
    Комментировать посты могут только пользователи прошедшие не сложную регистрацию
    Показать сообщения:    

    Год собаки через торрент
    Скачать бесплатно Год собаки
    Год собаки скачать торрент
    Год собаки смотреть онлайн
    Cкачать фильм Год собаки бесплатно
    Год собаки скачать торрент в хорошем качестве
    Год собаки смотреть онлайн бесплатно в хорошем качестве


    Вы не можете начинать темы
    Вы не можете отвечать на сообщения
    Вы не можете редактировать свои сообщения
    Вы не можете удалять свои сообщения
    Вы не можете голосовать в опросах
    Вы не можете прикреплять файлы к сообщениям
    Вы можете скачивать файлы