Ссылка на приватное зеркало нашего сайта всего за 1$. Внимание количество ограничено!!!

2 сезон

iTunes

1 сезон

1

2 сезон

2 сезон

iTunes

1 сезон

RePack

30

Новинка

ВАЖНО

ИГРА 18+

pack

RePack

MK11
pack

Забери бонус

RePack

jed

!!Акция!!

Alien_Rage

RePack

fifa19

RePack

Assassins Creed: Odyssey

RePack

NEED FOR SPEED™ PAYBACK

4 сезон

9 сезон

Бесстыжие 9 сезон

Все сериалы

все сериалы на PB.wtf

RePack

FAR CRY 5
  

Грязный Джон / Dirty John / Сезон: 1 / Серии: 1-8 из 8 (Джеффри Рейнер) [2018, Драма, WEB-DL 1080p] MVO [Jaskier] pb.wtf

Грязный Джон через торрент pb.wtf

Размер: 21.23 GB | Добавлен: 1 год 10 мес. назад | Торрент скачан:4 раза
Скачать  

17-12-2018 05:49 Грязный Джон Скачать торрент  

Грязный Джон / Dirty John Год выпуска: 2018
Страна: США
Жанр: Драма
Продолжительность: ~00:43:00
Перевод: Профессиональный (многоголосый закадровый) | Jaskier
Субтитры: английские

Режиссёр: Джеффри Рейнер

В ролях:

Конни Бриттон, Эрик Бана, Джулия Гарнер, Джуно Темпл, Джин Смарт, Кевин Зегерс, Кейко Аджена, Джон Карна, Спрэг Грэйден, Клифф Чемберлен

Описание:

Жизнь Дебры полностью меняется, когда у неё начинается роман с врачом по имени Джон. Со временем Дебра понимает, что оказалась вовлечена в зловещую игру психологических манипуляций, а её новый бойфренд — не тот, за кого себя выдаёт.



Качество: WEB-DL 1080p
Формат: MKV

Видео: 1920x1080 (16:9) | X264 | ~8700 kbps | 23.976 fps
Аудио 1: AC3, 48,0 КГц, 6 ch, 384 kbps - Rus
Аудио 2: AC3, 48,0 КГц, 6 ch, 384 kbps - Eng


Реклама: Присутствует звуковая (два раза в начале и конце по 12 сек.)
Переведено и озвучено студией JASKIER
Общее
Уникальный идентификатор                 : 201451626579153154444229067435975100902 (0x978E2C08060BB2879058C9013D97C9E6)
Полное имя                               : G:\Загрузки\Dirty.John.S01E01.1080p.WEB-DL.DD5.1.H.264-Jaskier.mkv
Формат                                   : Matroska
Версия формата                           : Version 2
Размер файла                             : 3,31 Гбайт
Продолжительность                        : 49 м. 52 с.
Общий поток                              : 9494 Кбит/сек
Дата кодирования                         : UTC 2018-12-16 11:34:37
Программа кодирования                    : mkvmerge v7.8.0 ('River Man') 32bit built on Apr  3 2015 12:11:22
Библиотека кодирования                   : libebml v1.3.1 + libmatroska v1.4.2

Видео
Идентификатор                            : 1
Формат                                   : AVC
Формат/Информация                        : Advanced Video Codec
Профиль формата                          : High@L4
Настройки формата                        : CABAC / 4 Ref Frames
Параметр CABAC формата                   : Да
Параметр RefFrames формата               : 4 кадра
Идентификатор кодека                     : V_MPEG4/ISO/AVC
Продолжительность                        : 49 м. 52 с.
Битрейт                                  : 8537 Кбит/сек
Ширина                                   : 1920 пикселей
Высота                                   : 1080 пикселей
Соотношение сторон                       : 16:9
Режим частоты кадров                     : Постоянный
Частота кадров                           : 23,976 (24000/1001) кадра/сек
Цветовое пространство                    : YUV
Субдискретизация насыщенности            : 4:2:0
Битовая глубина                          : 8 бит
Тип развёртки                            : Прогрессивная
Бит/(Пиксели*Кадры)                      : 0.172
Размер потока                            : 2,97 Гбайт (90%)
Язык                                     : English
Default                                  : Да
Forced                                   : Нет
Цветовой диапазон                        : Limited
Основные цвета                           : BT.709
Характеристики трансфера                 : BT.709
Коэффициенты матрицы                     : BT.709

Аудио #1
Идентификатор                            : 2
Формат                                   : AC-3
Формат/Информация                        : Audio Coding 3
Коммерческое название                    : Dolby Digital
Идентификатор кодека                     : A_AC3
Продолжительность                        : 49 м. 52 с.
Вид битрейта                             : Постоянный
Битрейт                                  : 384 Кбит/сек
Каналы                                   : 6 каналов
Channel layout                           : L R C LFE Ls Rs
Частота                                  : 48,0 КГц
Частота кадров                           : 31,250 кадров/сек (1536 SPF)
Битовая глубина                          : 16 бит
Метод сжатия                             : С потерями
Размер потока                            : 137 Мбайт (4%)
Заголовок                                : Jaskier
Язык                                     : Russian
ServiceKind/String                       : Complete Main
Default                                  : Да
Forced                                   : Нет

Аудио #2
Идентификатор                            : 3
Формат                                   : AC-3
Формат/Информация                        : Audio Coding 3
Коммерческое название                    : Dolby Digital
Идентификатор кодека                     : A_AC3
Продолжительность                        : 49 м. 52 с.
Вид битрейта                             : Постоянный
Битрейт                                  : 384 Кбит/сек
Каналы                                   : 6 каналов
Channel layout                           : L R C LFE Ls Rs
Частота                                  : 48,0 КГц
Частота кадров                           : 31,250 кадров/сек (1536 SPF)
Битовая глубина                          : 16 бит
Метод сжатия                             : С потерями
Размер потока                            : 137 Мбайт (4%)
Язык                                     : English
ServiceKind/String                       : Complete Main
Default                                  : Нет
Forced                                   : Нет

Текст
Идентификатор                            : 4
Формат                                   : UTF-8
Идентификатор кодека                     : S_TEXT/UTF8
Идентификатор кодека/Информация          : UTF-8 Plain Text
Язык                                     : English
Default                                  : Нет
Forced                                   : Нет
скриншот  скриншот  скриншот  
Когда раздача ведётся путём добавления новых серий, при каждом добавлении создётся новый торрент. Чтобы начать докачку новой серии, пользователям необходимо сделать следующее:
(1) остановить скачивание,
(2) удалить старый торрент у себя из клиента (старые серии удалять не надо),
(3) скачать новый торрент и запустить его у себя в клиенте вместо старого, при этом указать клиенту путь в старую папку, куда и должно происходить скачивание новых серий.
Ваш клиент при этом должен произвести хеширование (проверку) старой папки (если не производит сам - помогите ему сделать это), и будет докачивать только те серии, которых у вас ещё нет. Старые серии при этом не удаляются, а продолжают раздаваться!
Eсли вы уже удалили старые серии, то предотвратить повторную закачку старых серий можно, отжав галочку в соответсвующих местах при запуске нового торрента. По возможности, желательно не удалять старые серии как можно дольше, чтобы релизёр не столько продолжал раздавать старые серии, а смог сконцентрироваться на новых.
pb.wtf



Скачать Грязный Джон через торрент https://i108.fastpic.ru/big/2018/1226/9c/fd6e39314f66a7830508273a49cdcb9c.png Скачать фильм Грязный Джон через торрент бесплантно в хорошем качестве Описание: Жизнь Дебры полностью меняется, когда у неё начинается роман с врачом по имени Джон. Со временем Дебра понимает, что оказалась ... 7.8 10 4
Торрент: Зарегистрирован [2019-01-16 17:04] · скачан: 4 раз
Статус: √ проверено
Размер: 21.23 GB
Как cкачать? Как скачать Грязный Джон через торрент | qTorrent

% Раздел Тема Автор DL S | L
Зарубежные сериалы [ 3.68 GB ] Грязный Джон / Dirty John / Сезон: 1 / Серии: 1-8 из 8 [2018 WEBRip] [MVO] killermax2013 Скачать
1 | 0
Зарубежные сериалы [ 16.11 GB ] Грязный Джон / Dirty John / Сезон: 1 / Серии: 1-8 из 8 [2018 WEBRip 1080p] [MVO] killermax2013 Скачать
1 | 0
Зарубежные сериалы [ 4.4 GB ] Грязный Джон / Dirty John / Сезон: 1 / Серии: 1-8 из 8 [2018 WEB-DLRip] MVO [Jaskier] bober100 Скачать
1 | 0
Зарубежные сериалы [ 1.19 GB ] Грязный Джон / Dirty John / Сезон: 1 / Серии: 1-2 из 8 [2018 WEB-DLRip] MVO [NewStudio] bober100 Скачать
1 | 0

28-11-2019 20:33  

Отключить всю рекламу на сайте

    Дорогой пользователь! Огромная просьба, поблагодарите релизера, оцените раздачу и оставьте свои комментарий, если Вы скачали Грязный Джон через торрент бесплатно! Внесите свою лепту в развитие PiratBit!
    Комментировать посты могут только пользователи прошедшие не сложную регистрацию
    Показать сообщения:    

    Грязный Джон через торрент
    Скачать бесплатно Грязный Джон
    Грязный Джон скачать торрент
    Грязный Джон смотреть онлайн
    Cкачать фильм Грязный Джон бесплатно
    Грязный Джон скачать торрент в хорошем качестве
    Грязный Джон смотреть онлайн бесплатно в хорошем качестве


    Вы не можете начинать темы
    Вы не можете отвечать на сообщения
    Вы не можете редактировать свои сообщения
    Вы не можете удалять свои сообщения
    Вы не можете голосовать в опросах
    Вы не можете прикреплять файлы к сообщениям
    Вы можете скачивать файлы