Ссылка на приватное зеркало всего за 1$. Внимание количество ограничено!!!

OK

1+1

iTunes

мы

OK

1

WEB-DLRip

Джокер

Пифагор

Ведьмак / The Witcher сериал

iTunes

ПШазам

ОК

Оно 2

iTunes

30
pack

Вам бонус

ВАЖНО

!!Акция!!

Alien_RageХит недели

RePack

Resident Evil 21

ИГРА 18+

pack

RePack

jed

RePack

fifa19

RePack

Assassins Creed: Odyssey

RePack

NEED FOR SPEED™ PAYBACK

4 сезон

9 сезон

Бесстыжие 9 сезон

Все сериалы

все сериалы на PB.wtf

RePack

FAR CRY 5
  

Зачем прятаться? / Why Hide? (Джеймс Кук) [2018, Ужасы, комедия, WEB-DL 720p] MVO ["Синема УС"] pb.wtf

Зачем прятаться? через торрент pb.wtf

Размер: 3.05 GB | Добавлен: 1 год 1 мес. назад | Торрент скачан:25 раз
Скачать  

17-12-2018 10:29 Зачем прятаться? Скачать торрент  

Зачем прятаться? / Why Hide?Год выпуска: 2018
Страна: Великобритания
Жанр: Ужасы, комедия
Продолжительность: 01:30:01
Перевод: Любительский (многоголосый) | "Синема УС"
Субтитры: отсутствуют

Режиссер: Джеймс Кук

rating

В ролях:

Шарлотта Эткинсон, Лорна Браун, Марк Чаттертон, Орла Коттингхэм, Уильям Холстед, Дэниэл Уэбб

Описание:

Разношёрстная группа друзей собирается провести уикенд в съемном коттедже за городом. Вскоре после прибытия один из них бесследно исчезает. Молодые люди отправляются на поиски, и, со временем, начинают замечать некое зловещее присутствие. Рождественские праздники быстро превращаются в отчаянную борьбу за выживание.

Качество: WEB-DL 720p
Формат: MKV

Видео: h.264, 4 462 kb/s, 1280x536
Аудио#1: Русский, (AC3, 2 ch, 384 Кбит/с)
скриншот  скриншот  скриншот  

Общее
Уникальный идентификатор : 210000097676412517579796659671697981345 (0x9DFC8C32646A8CCC985286D44EBBFFA1)
Полное имя : E:\торреннты\Why.Hide.2018.P.WEB-DL.72Op_KOSHARA.mkv
Формат : Matroska
Версия формата : Version 2
Размер файла : 3,05 Гбайт
Продолжительность : 1 ч. 30 м.
Режим общего битрейта : Переменный
Общий поток : 4847 Кбит/сек
Дата кодирования : UTC 2018-12-16 05:09:15
Программа кодирования : mkvmerge v8.3.0 ('Over the Horizon') 64bit
Библиотека кодирования : libebml v1.3.1 + libmatroska v1.4.2

Видео
Идентификатор : 1
Формат : AVC
Формат/Информация : Advanced Video Codec
Профиль формата : High@L4.1
Настройки формата : CABAC / 4 Ref Frames
Параметр CABAC формата : Да
Параметр RefFrames формата : 4 кадра
Идентификатор кодека : V_MPEG4/ISO/AVC
Продолжительность : 1 ч. 30 м.
Вид битрейта : Переменный
Битрейт : 4462 Кбит/сек
Максимальный битрейт : 5000 Кбит/сек
Ширина : 1280 пикселей
Высота : 536 пикселей
Соотношение сторон : 2,40:1
Режим частоты кадров : Постоянный
Частота кадров : 23,976 (24000/1001) кадра/сек
Стандарт вещания : Component
Цветовое пространство : YUV
Субдискретизация насыщенности : 4:2:0
Битовая глубина : 8 бит
Тип развёртки : Прогрессивная
Бит/(Пиксели*Кадры) : 0.265
Размер потока : 2,75 Гбайт (90%)
Default : Да
Forced : Нет
Цветовой диапазон : Limited
Основные цвета : BT.709
Характеристики трансфера : BT.709
Коэффициенты матрицы : BT.709

Аудио
Идентификатор : 2
Формат : AC-3
Формат/Информация : Audio Coding 3
Идентификатор кодека : A_AC3
Продолжительность : 1 ч. 30 м.
Вид битрейта : Постоянный
Битрейт : 384 Кбит/сек
Каналы : 2 канала
Расположение каналов : Front: L R
Частота : 48,0 КГц
Частота кадров : 31,250 кадров/сек (1536 SPF)
Битовая глубина : 16 бит
Метод сжатия : С потерями
Размер потока : 247 Мбайт (8%)
ServiceKind/String : Complete Main
Default : Да
Forced : Нет

pb.wtf



Скачать Зачем прятаться? через торрент http://img14.lostpic.net/2018/12/17/057ed6cf37b3c30d5b8459c8c7ff444d.jpg Скачать фильм Зачем прятаться? через торрент бесплантно в хорошем качестве Описание: Разношёрстная группа друзей собирается провести уикенд в съемном коттедже за городом. Вскоре после прибытия один из них бесследно ... 10 10 2
Торрент: Зарегистрирован [2018-12-17 10:29] · скачан: 25 раз
Статус: T временная
Размер: 3.05 GB
Как cкачать? Как скачать Зачем прятаться? через торрент | qTorrent

28-11-2019 20:33  

Отключить всю рекламу на сайте

17-12-2018 16:21 Зачем прятаться? Скачать торрент  

фигня,на пол фильма меня хватило.pb.wtf



    Дорогой пользователь! Огромная просьба, поблагодарите релизера, оцените раздачу и оставьте свои комментарий, если Вы скачали Зачем прятаться? через торрент бесплатно! Внесите свою лепту в развитие PiratBit!
    Комментировать посты могут только пользователи прошедшие не сложную регистрацию
    Показать сообщения:    

    Зачем прятаться? через торрент
    Скачать бесплатно Зачем прятаться?
    Зачем прятаться? скачать торрент
    Зачем прятаться? смотреть онлайн
    Cкачать фильм Зачем прятаться? бесплатно
    Зачем прятаться? скачать торрент в хорошем качестве
    Зачем прятаться? смотреть онлайн бесплатно в хорошем качестве


    Вы не можете начинать темы
    Вы не можете отвечать на сообщения
    Вы не можете редактировать свои сообщения
    Вы не можете удалять свои сообщения
    Вы не можете голосовать в опросах
    Вы не можете прикреплять файлы к сообщениям
    Вы можете скачивать файлы