2 сезон

iTunes

MVO

1

2 сезон

iTunes

iTunes

1 сезон

RePack

30

Ultimate

ВАЖНО

ИГРА 18+

pack

RePack

MK11
pack

Легкие деньги

RePack

jed

RePack

fifa19

RePack

RDR2

RePack

NEED FOR SPEED™ PAYBACK

4 сезон

9 сезон

Бесстыжие 9 сезон

Все сериалы

все сериалы на PB.wtf

RePack

FAR CRY 5

Anonymous, добрый вечер, мы не успеваем собрать деньги на оплату серверов за декабрь и январь, помогите нам пожалуйста в это трудное время. В качестве благодарности мы отключим Вам всю рекламу на сайте (укажите свой ник в строку Ваше имя)!

×
  
Magnet ссылка

Останься со мной / The Keeping Hours (Карен Монкрифф) [2017, Ужасы, триллер, драма, мелодрама, DVDRip] DUB [Лицензия R5] pb.wtf

Останься со мной через торрент pb.wtf

Размер: 1.46 GB | Добавлен: 2 года назад | Торрент скачан:235 раз
Скачать  

17-12-2018 10:34 Останься со мной Скачать торрент  

Останься со мной / The Keeping Hours
Год выпуска: 2017
Страна: США
Жанр: Ужасы, триллер, драма, мелодрама
Продолжительность: 01:31:00
Перевод: Дублированный | Лицензия R5 | (НД Плэй)
Субтитры: отсутствуют

Режиссер: Карен Монкрифф

rating

В ролях:

Ли Пейс, Кэрри Кун, Эми Смарт, Молли Хэйгэн, Ана Ортис, Анна Диоп, Кристина Видаль, Рэй Бэйкер, Клифф Чемберлен, Джейн Дэйли

Описание:

Десять лет назад в жизни главных героев произошла трагедия - в автомобильной аварии погиб их сын, Джейкоб. И вот спустя десять лет благодаря череде мистических событий у разведённых супругов появляется шанс искупить вину и обрести прощение.

Качество: DVDRip
Формат: AVI

Видео: XviD, 720x304, 25 fps, 1896 kbps
Аудио: AC3, 6 ch, 384 kbps
скриншот  скриншот  скриншот  скриншот  
Общее
Полное имя : E:\Ostansya.so.Mnoyi.2017.DVDRip.1.46Gb.R5.MegaPeer.avi
Формат : AVI
Формат/Информация : Audio Video Interleave
Размер файла : 1,46 Гбайт
Продолжительность : 1 ч. 31 м.
Общий поток : 2290 Кбит/сек
Программа кодирования : VirtualDubMod 1.5.10.3 | www.virtualdub-fr.org || (build 2550/release)
Библиотека кодирования : VirtualDubMod build 2550/release

Видео
Идентификатор : 0
Формат : MPEG-4 Visual
Профиль формата : Advanced Simple@L5
Настройки формата : BVOP1 / Custom Matrix
Параметр BVOP формата : 1
Параметр QPel формата : Нет
Параметр GMC формата : Без точки перехода
Параметр матрицы формата : Выборочная
Идентификатор кодека : XVID
Идентификатор кодека/Подсказка : XviD
Продолжительность : 1 ч. 31 м.
Битрейт : 1897 Кбит/сек
Ширина : 720 пикселей
Высота : 304 пикселя
Соотношение сторон : 2,35:1
Частота кадров : 25,000 кадров/сек
Цветовое пространство : YUV
Субдискретизация насыщенности : 4:2:0
Битовая глубина : 8 бит
Тип развёртки : Прогрессивная
Метод сжатия : С потерями
Бит/(Пиксели*Кадры) : 0.347
Размер потока : 1,21 Гбайт (83%)
Библиотека кодирования : XviD 73

Аудио
Идентификатор : 1
Формат : AC-3
Формат/Информация : Audio Coding 3
Идентификатор кодека : 2000
Продолжительность : 1 ч. 31 м.
Вид битрейта : Постоянный
Битрейт : 384 Кбит/сек
Каналы : 6 каналов
Расположение каналов : Front: L C R, Side: L R, LFE
Частота : 48,0 КГц
Частота кадров : 31,250 кадров/сек (1536 SPF)
Битовая глубина : 16 бит
Метод сжатия : С потерями
Размер потока : 250 Мбайт (17%)
Выравнивание : Разделение по промежуткам
Продолжительность промежутка : 40 мс. (1,00 видеокадр)
Время предзагрузки промежутка : 500 мс.
ServiceKind/String : Complete Main
pb.wtf



Скачать Останься со мной через торрент https://d.radikal.ru/d37/1810/f5/2389c4c7eb93.jpg Скачать фильм Останься со мной через торрент бесплантно в хорошем качестве Описание: Десять лет назад в жизни главных героев произошла трагедия - в автомобильной аварии погиб их сын, Джейкоб. И вот спустя десять ... 10 10 3
Торрент: Зарегистрирован [2018-12-17 10:34] · скачан: 235 раз
Статус: √ проверено
Размер: 1.46 GB
Как cкачать? Как скачать Останься со мной через торрент | UTorrent

% Раздел Тема Автор DL S | L
Фильмы (WEB-DL 720p, 1080p) [ 3.17 GB ] Останься со мной / The Keeping Hours [2017 WEB-DL 720p] DUB [ R5] - ExKinoRay Enigma2010 Скачать
8 | 0
Фильмы 2017 [DVDrip, WEB-DLRip, HDrip] (DUB, MVO) [ 1.46 GB ] Останься со мной / The Keeping Hours [2017 DVDRip-AVC] DUB [ R5] - ExKinoRay Enigma2010 Скачать
3 | 0

28-11-2019 20:33  

Отключить всю рекламу на сайте

    Дорогой пользователь! Огромная просьба, поблагодарите релизера, оцените раздачу и оставьте свои комментарий, если Вы скачали Останься со мной через торрент бесплатно! Внесите свою лепту в развитие PiratBit!
    Комментировать посты могут только пользователи прошедшие не сложную регистрацию
    Показать сообщения:    

    Останься со мной через торрент
    Скачать бесплатно Останься со мной
    Останься со мной скачать торрент
    Останься со мной смотреть онлайн
    Cкачать фильм Останься со мной бесплатно
    Останься со мной скачать торрент в хорошем качестве
    Останься со мной смотреть онлайн бесплатно в хорошем качестве


    Вы не можете начинать темы
    Вы не можете отвечать на сообщения
    Вы не можете редактировать свои сообщения
    Вы не можете удалять свои сообщения
    Вы не можете голосовать в опросах
    Вы не можете прикреплять файлы к сообщениям
    Вы можете скачивать файлы