Ссылка на приватное зеркало нашего сайта всего за 1$. Внимание количество ограничено!!!

2 сезон

iTunes

1 сезон

1

iTunes

iTunes

iTunes

1 сезон

RePack

30

ИГРА 18+

pack

ВАЖНО

!!Акция!!

Alien_RageХит недели

RePack

MK11
pack

Забери бонус

RePack

jed

!!Акция!!

Alien_Rage

RePack

fifa19

RePack

Assassins Creed: Odyssey

RePack

NEED FOR SPEED™ PAYBACK

4 сезон

9 сезон

Бесстыжие 9 сезон

Все сериалы

все сериалы на PB.wtf

RePack

FAR CRY 5
  

Тайны следствия / Сезон: 18 / Серии: 1-24 из 24 (Ольга Кандидатова) [2018, детектив, драма, криминал, SATRip] pb.wtf

Тайны следствия через торрент pb.wtf

Размер: 16.65 GB | Добавлен: 1 год 9 мес. назад | Торрент скачан:34 раза
Скачать  

17-12-2018 12:01 Тайны следствия Скачать торрент  

Тайны следствия Год выпуска: 2018
Страна: Россия
Жанр: детектив, драма, криминал
Продолжительность: ~ 00:45:00 серия
Субтитры: отсутствуют

Режиссер: Ольга Кандидатова

rating

В ролях:

Анна Ковальчук, Вячеслав Захаров, Игорь Николаев (II), Александр Новиков (III), Игорь Григорьев (IV), Ольга Павловец, Дмитрий Поднозов, Андрей Шарков, Александр Шпилько, Лора Коробских, Жанна Куприянова

Описание:

Следователю Марии Сергеевне Швецовой предстоит разобраться в новых запутанных преступлениях. Тем временем у остальных героев в жизни большие перемены. Оля наконец забеременела от Курочкина, будущий папаша разрывается между домом и работой. Кораблев вышел на след свидетеля, который может доказать вину Шипова. Сам же Шипов остался без жены. Она не вынесла присутствия в его жизни любовницы и, забрав дочь, вернулась на родину. Так что теперь Шипов строит новую семью с Настей и ее маленьким сыном. Строит он и загородный дом, как обычно, не гнушаясь никакими методами "зарабатывания" денег. Кораблев всеми силами старается вывести Шипова на чистую воду и в надежде заполучить своего человека в стане врага сближается с Беловой. А Марию Сергеевну судьба сводит с успешным хирургом Максимом Солнцевым..

Качество: SATRip
Формат: AVI

Видео: XviD, ~1800 Кбит/с, 720x400
Аудио: MP3, 2 ch, 128 Кбит/с
скриншот  скриншот  скриншот  

Общее
Полное имя : D:\Tajny.sledstviya (2018)\Tajny.sledstviya.18.01.SATRip.avi
Формат : AVI
Формат/Информация : Audio Video Interleave
Размер файла : 717 Мбайт
Продолжительность : 51 м. 39 с.
Общий поток : 1942 Кбит/сек

Видео
Идентификатор : 0
Формат : MPEG-4 Visual
Профиль формата : Advanced Simple@L5
Параметр BVOP формата : 2
Параметр QPel формата : Нет
Параметр GMC формата : Без точки перехода
Параметр матрицы формата : Default (H.263)
Идентификатор кодека : XVID
Идентификатор кодека/Подсказка : XviD
Продолжительность : 51 м. 39 с.
Битрейт : 1800 Кбит/сек
Ширина : 720 пикселей
Высота : 400 пикселей
Соотношение сторон : 16:9
Частота кадров : 25,000 кадров/сек
Цветовое пространство : YUV
Субдискретизация насыщенности : 4:2:0
Битовая глубина : 8 бит
Тип развёртки : Прогрессивная
Метод сжатия : С потерями
Бит/(Пиксели*Кадры) : 0.250
Размер потока : 665 Мбайт (93%)
Библиотека кодирования : XviD 1.2.1 (UTC 2008-12-04)

Аудио
Идентификатор : 1
Формат : MPEG Audio
Версия формата : Version 1
Профиль формата : Layer 3
Режим : Joint stereo
Расширение режима : MS Stereo
Идентификатор кодека : 55
Идентификатор кодека/Подсказка : MP3
Продолжительность : 51 м. 39 с.
Вид битрейта : Постоянный
Битрейт : 128 Кбит/сек
Каналы : 2 канала
Частота : 48,0 КГц
Метод сжатия : С потерями
Размер потока : 47,3 Мбайт (7%)
Выравнивание : Соединение по промежуткам
Продолжительность промежутка : 24 мс. (0,60 видеокадр)
Библиотека кодирования : LAME3.99r
Настройки программы : -m j -V 4 -q 9 -lowpass 17 -b 128

Внимание! Раздача ведётся путём добавления новых серий; при каждом добавлении создаётся новый торрент. Чтобы начать докачку новой серии, пользователям необходимо сделать следующее: (1) остановить скачивание, (2) удалить старый торрент у себя из клиента (старые серии удалять не надо), (3) скачать новый торрент и запустить его у себя в клиенте вместо старого, при этом указать клиенту путь в старую папку куда и должно происходить скачивание новых серий.
Ваш клиент при этом должен произвести хеширование (проверку) старой папки (если не производит сам - помогите ему сделать это), и будет докачивать только те серии которых у вас ещё нет. Старые серии при этом не удаляются, а продолжают раздаваться!
Eсли вы уже удалили старые серии, то предотвратить повторную закачку старых серий можно, отжав галочку в соответсвующих местах при запуске нового торрента.
pb.wtf



Скачать Тайны следствия через торрент https://i106.fastpic.ru/big/2018/1217/3b/dda4692e03e0e439c0b87393ece0553b.jpg Скачать фильм Тайны следствия через торрент бесплантно в хорошем качестве Описание: Следователю Марии Сергеевне Швецовой предстоит разобраться в новых запутанных преступлениях. Тем временем у остальных героев в ... 10 10 12
Торрент: Зарегистрирован [2018-12-29 20:14] · скачан: 34 раз
Статус: √ проверено
Размер: 16.65 GB
Как cкачать? Как скачать Тайны следствия через торрент | qTorrent

% Раздел Тема Автор DL S | L
Наши сериалы [ 65.76 GB ] Тайны следствия / Сезон: 18 / Серии: 1-24 из 24 [2018 HDTV 1080i] bober100 Скачать
1 | 0
Наши сериалы [ 15.95 GB ] Тайны следствия / Сезон: 18 / Серии: 1-24 из 24 [2018 WEBRip-AVC] bober100 Скачать
1 | 0
Наши сериалы [ 15.88 GB ] Тайны следствия / Сезон: 18 / Серии: 1-24 из 24 [2018 WEB-DLRip] bober100 Скачать
1 | 0
Наши сериалы [ 16.29 GB ] Тайны следствия / Сезон: 18 / Серии: 1-24 из 24 [2018 SATRip-AVC] aleksan55 Скачать
1 | 0


Последний раз редактировалось: bober100 (2018-12-29 20:15), всего редактировалось 10 раз(а)

28-11-2019 20:33  

Отключить всю рекламу на сайте

18-12-2018 14:47 Тайны следствия Скачать торрент  

Имеется реклама?pb.wtf



20-12-2018 12:09 Тайны следствия Скачать торрент  

Сериал очень интересный, как всегда!pb.wtf



21-12-2018 17:06 Тайны следствия Скачать торрент  

рекламы слишком много только в раздачеpb.wtf



22-08-2019 11:31 Тайны следствия Скачать торрент  

Не кчёмный сериал!pb.wtf



    Дорогой пользователь! Огромная просьба, поблагодарите релизера, оцените раздачу и оставьте свои комментарий, если Вы скачали Тайны следствия через торрент бесплатно! Внесите свою лепту в развитие PiratBit!
    Комментировать посты могут только пользователи прошедшие не сложную регистрацию
    Показать сообщения:    

    Тайны следствия через торрент
    Скачать бесплатно Тайны следствия
    Тайны следствия скачать торрент
    Тайны следствия смотреть онлайн
    Cкачать фильм Тайны следствия бесплатно
    Тайны следствия скачать торрент в хорошем качестве
    Тайны следствия смотреть онлайн бесплатно в хорошем качестве


    Вы не можете начинать темы
    Вы не можете отвечать на сообщения
    Вы не можете редактировать свои сообщения
    Вы не можете удалять свои сообщения
    Вы не можете голосовать в опросах
    Вы не можете прикреплять файлы к сообщениям
    Вы можете скачивать файлы