2 сезон

iTunes

1 сезон

1

iTunes

iTunes

iTunes

1 сезон

RePack

30

ИГРА 18+

pack

ВАЖНО

!!Акция!!

Alien_RageХит недели

RePack

MK11
pack

Забери бонус

RePack

jed

!!Акция!!

Alien_Rage

RePack

fifa19

RePack

Assassins Creed: Odyssey

RePack

NEED FOR SPEED™ PAYBACK

4 сезон

9 сезон

Бесстыжие 9 сезон

Все сериалы

все сериалы на PB.wtf

RePack

FAR CRY 5
  

Пуля / Сезон: 1 / Серии: 1-10 из 10 (Алексей Быстрицкий) [2018, Детектив, криминал, SATRip] pb.wtf

Пуля через торрент pb.wtf

Размер: 6.08 GB | Добавлен: 1 год 10 мес. назад | Торрент скачан:199 раз
Скачать  

17-12-2018 12:32 Пуля Скачать торрент  

Пуля Год выпуска: 2018
Страна: Россия
Жанр: Детектив, криминал
Продолжительность: ~ 00:45:00 серия
Субтитры: отсутствуют

Режиссер: Алексей Быстрицкий



В ролях:

Никита Панфилов, Иева Андреевайте, Максим Щёголев, Анатолий Кот, Александр Яцко, Олег Кассин, Анна Галлямова, Антон Кузнецов, Роман Лянчук

Описание:

Главный герой — командир отряда специального назначения ГРУ, майор Кирилл Романов (Никита Панфилов), получает таинственное сообщение от виновника смерти его матери. В письме сообщается, что автор не причастен к её кончине. Кирилл в замешательстве, он решает прервать военный контракт и вернуться в Москву, чтобы встретиться с преступником лично и узнать подробности трагедии, которая произошла в Сибири, на месте, где собиралась базироваться нефтяная компания. Больше двадцати лет прошло с той страшной ночи, когда во время пожара погибла мать Романова и новые обстоятельства побуждают Кирилла провести собственное расследование трагедии. Для этого он устраивается работать в ту самую нефтяную компанию, где узнает, что на предприятии происходят странные события. Там же он знакомится с Дашей (Иева Андреевайте), родственники которой погибли при тех же обстоятельствах, что и мать Кирилла.

Качество: SATRip
Формат: AVI

Видео: XviD, 1800 Кбит/с, 720x304
Аудио: МР3, 2 ch, 192 Кбит/с
скриншот  скриншот  скриншот  скриншот  

Общее
Полное имя : D:\Pulya.2018.XviD.SATRip.25Kuzmich\Pulya.e01.XviD.SATRip.25Kuzmich.avi
Формат : AVI
Формат/Информация : Audio Video Interleave
Размер файла : 602 Мбайт
Продолжительность : 45 м. 25 с.
Общий поток : 1852 Кбит/сек
Программа кодирования : VirtualDubMod 1.5.10.3 | www.virtualdub-fr.org || (build 2550/release)
Библиотека кодирования : VirtualDubMod build 2550/release

Видео
Идентификатор : 0
Формат : MPEG-4 Visual
Профиль формата : Advanced Simple@L5
Параметр BVOP формата : 2
Параметр QPel формата : Нет
Параметр GMC формата : Без точки перехода
Параметр матрицы формата : Default (MPEG)
Режим смешивания : Сжатый битовый поток
Идентификатор кодека : XVID
Идентификатор кодека/Подсказка : XviD
Продолжительность : 45 м. 25 с.
Битрейт : 1650 Кбит/сек
Ширина : 720 пикселей
Высота : 304 пикселя
Соотношение сторон : 2,35:1
Частота кадров : 25,000 кадров/сек
Цветовое пространство : YUV
Субдискретизация насыщенности : 4:2:0
Битовая глубина : 8 бит
Тип развёртки : Прогрессивная
Метод сжатия : С потерями
Бит/(Пиксели*Кадры) : 0.302
Размер потока : 536 Мбайт (89%)
Библиотека кодирования : XviD 1.2.1 (UTC 2008-12-04)

Аудио
Идентификатор : 1
Формат : MPEG Audio
Версия формата : Version 1
Профиль формата : Layer 3
Режим : Joint stereo
Идентификатор кодека : 55
Идентификатор кодека/Подсказка : MP3
Продолжительность : 45 м. 25 с.
Вид битрейта : Постоянный
Битрейт : 192 Кбит/сек
Каналы : 2 канала
Частота : 48,0 КГц
Метод сжатия : С потерями
Размер потока : 62,4 Мбайт (10%)
Выравнивание : Соединение по промежуткам
Продолжительность промежутка : 40 мс. (1,00 видеокадр)
Время предзагрузки промежутка : 504 мс.
Библиотека кодирования : LAME3.99r
Настройки программы : -m j -V 4 -q 2 -lowpass 18.6 -b 192

Внимание! Раздача ведётся путём добавления новых серий; при каждом добавлении создаётся новый торрент. Чтобы начать докачку новой серии, пользователям необходимо сделать следующее: (1) остановить скачивание, (2) удалить старый торрент у себя из клиента (старые серии удалять не надо), (3) скачать новый торрент и запустить его у себя в клиенте вместо старого, при этом указать клиенту путь в старую папку куда и должно происходить скачивание новых серий.
Ваш клиент при этом должен произвести хеширование (проверку) старой папки (если не производит сам - помогите ему сделать это), и будет докачивать только те серии которых у вас ещё нет. Старые серии при этом не удаляются, а продолжают раздаваться!
Eсли вы уже удалили старые серии, то предотвратить повторную закачку старых серий можно, отжав галочку в соответсвующих местах при запуске нового торрента.
pb.wtf



Скачать Пуля через торрент http://img14.lostpic.net/2018/12/17/104c532fb6b1ea31f1a137db93729dc7.jpg Скачать фильм Пуля через торрент бесплантно в хорошем качестве Описание: Главный герой — командир отряда специального назначения ГРУ, майор Кирилл Романов (Никита Панфилов), получает таинственное ... 9.8 10 18
Info! Золотая раздача, скачанное не засчитывается.
Торрент: Зарегистрирован [2018-12-21 16:55] · скачан: 199 раз
Статус: √ проверено
Размер: 6.08 GB
Как cкачать? Как скачать Пуля через торрент | qTorrent

% Раздел Тема Автор DL S | L
Космос [ 7.65 GB ] Космические колонии / Space Colonies / Сезон: 1 / Серии: 1-3 из 3 [2018 Документальный научно-популярный космос HDTV 1080i] bober100 Скачать
1 | 0
Зарубежные сериалы [ 25.76 GB ] Пули / Bullets / Сезон: 1 / Серии: 1-10 из 10 [2018 HDTV 1080p] MVO [Амедиа] bober100 Скачать
1 | 0
Наши сериалы [ 5.49 GB ] Пуля / Сезон: 1 / Серии: 1-10 из 10 [2018 WEBRip-AVC] bober100 Скачать
1 | 0
Наши сериалы [ 12.11 GB ] Пуля / Сезон: 1 / Серии: 1-10 из 10 [2018 WEBRip 720p] bober100 Скачать
1 | 0
Наши сериалы [ 5.94 GB ] Пуля / Сезон: 1 / Серии: 1-10 из 10 [2018 WEB-DLRip] bober100 Скачать
1 | 0
Наши сериалы [ 20.07 GB ] Пуля / Сезон: 1 / Серии: 1-10 из 10 [2018 WEB-DL 1080p] bober100 Скачать
1 | 0
BBC [ 9.01 GB ] BBC. Опасная планета / Dangerous Earth / Сезон: 1 / Серии: 1-3 из 3 [2016 Документальный научно-популярный исследования HDTV 1080i] DVO bober100 Скачать
1 | 0

28-11-2019 20:33  

Отключить всю рекламу на сайте

05-01-2019 15:08 Пуля Скачать торрент  

Скучный pb.wtf



08-01-2019 13:33 Пуля Скачать торрент  

нудныйpb.wtf



    Дорогой пользователь! Огромная просьба, поблагодарите релизера, оцените раздачу и оставьте свои комментарий, если Вы скачали Пуля через торрент бесплатно! Внесите свою лепту в развитие PiratBit!
    Комментировать посты могут только пользователи прошедшие не сложную регистрацию
    Показать сообщения:    

    Пуля через торрент
    Скачать бесплатно Пуля
    Пуля скачать торрент
    Пуля смотреть онлайн
    Cкачать фильм Пуля бесплатно
    Пуля скачать торрент в хорошем качестве
    Пуля смотреть онлайн бесплатно в хорошем качестве


    Вы не можете начинать темы
    Вы не можете отвечать на сообщения
    Вы не можете редактировать свои сообщения
    Вы не можете удалять свои сообщения
    Вы не можете голосовать в опросах
    Вы не можете прикреплять файлы к сообщениям
    Вы можете скачивать файлы