Ссылка на приватное зеркало нашего сайта всего за 1$. Внимание количество ограничено!!!

2 сезон

iTunes

1 сезон

1

iTunes

iTunes

iTunes

1 сезон

RePack

30

ИГРА 18+

pack

ВАЖНО

!!Акция!!

Alien_RageХит недели

RePack

MK11
pack

Забери бонус

RePack

jed

!!Акция!!

Alien_Rage

RePack

fifa19

RePack

Assassins Creed: Odyssey

RePack

NEED FOR SPEED™ PAYBACK

4 сезон

9 сезон

Бесстыжие 9 сезон

Все сериалы

все сериалы на PB.wtf

RePack

FAR CRY 5
  

Желтый глаз тигра / Серии: 1-16 из 16 (Марк Горобец) [2018, Боевик, криминал, WEB-DLRip] pb.wtf

Желтый глаз тигра через торрент pb.wtf

Размер: 8.71 GB | Добавлен: 1 год 10 мес. назад | Торрент скачан:465 раз
Скачать  

17-12-2018 12:46 Желтый глаз тигра Скачать торрент  

Желтый глаз тигра
Год выпуска: 2018
Страна: Россия
Жанр: Боевик, криминал
Продолжительность: ~ 00:47:00 серия
Субтитры: отсутствуют

Режиссер: Марк Горобец




В ролях:

Павел Прилучный, Карина Андоленко, Роман Курцын, Максим Костромыкин, Виталий Кищенко, Екатерина Буйлова, Иван Ивашкин, Маша Шерстобитова, Светлана Степанковская

Описание:

1988 год, Калининград. Четверо лучших друзей отмечают школьный выпускной и делятся планами на будущее, мечтая связать свою жизнь с янтарем. Но янтарный бизнес превращает бывших юных мечтателей в алчных хладнокровных дельцов, не гнушающихся даже воровством и убийствами. Спустя 15 лет одному из героев придется бороться с друзьями юности, чтобы разоблачить преступную сеть и остановить «янтарный беспредел».

Качество: WEB-DLRip
Формат: AVI

Видео: 720x304 (2.35:1), 25 fps, XviD build 73, 1465 Kbps, 0.26 bit/pixel
Аудио: 48 kHz, AC3, 2 ch, 192.00 kbps
скриншот  скриншот  скриншот  скриншот  скриншот  

General
Complete name : Downloads\Zheltyj.Glaz.Tigra.2018.XviD.WEB-DLRip.GeneralFilm\Zheltyj.Glaz.Tigra.e01.avi
Format : AVI
Format/Info : Audio Video Interleave
File size : 557 MiB
Duration : 46mn 44s
Overall bit rate : 1 667 Kbps
Writing application : VirtualDubMod 1.5.10.3 | www.virtualdub-fr.org || (build 2550/release)
Writing library : VirtualDubMod build 2550/release
Video #0
ID : 0
Format : MPEG-4 Visual
Format profile : Advanced Simple@L5
Format settings, BVOP : 1
Format settings, QPel : No
Format settings, GMC : No warppoints
Format settings, Matrix : Custom
Codec ID : XVID
Codec ID/Hint : XviD
Duration : 46mn 44s
Bit rate : 1 465 Kbps
Width : 720 pixels
Height : 304 pixels
Display aspect ratio : 2.35:1
Frame rate : 25.000 fps
Color space : YUV
Chroma subsampling : 4:2:0
Bit depth : 8 bits
Scan type : Progressive
Compression mode : Lossy
Bits/(Pixel*Frame) : 0.268
Stream size : 490 MiB (88%)
Writing library : XviD 73
Audio #1
ID : 1
Format : AC-3
Format/Info : Audio Coding 3
Mode extension : CM (complete main)
Format settings, Endianness : Big
Codec ID : 2000
Duration : 46mn 44s
Bit rate mode : Constant
Bit rate : 192 Kbps
Channel(s) : 2 channels
Channel positions : Front: L R
Sampling rate : 48.0 KHz
Bit depth : 16 bits
Compression mode : Lossy
Stream size : 64.2 MiB (12%)
Alignment : Split accross interleaves
Interleave, duration : 40 ms (1.00 video frame)
Interleave, preload duration : 500 ms

pb.wtf



Скачать Желтый глаз тигра через торрент http://a.radikal.ru/a19/1811/37/bf7fedbe583e.jpg Скачать фильм Желтый глаз тигра через торрент бесплантно в хорошем качестве Описание: 1988 год, Калининград. Четверо лучших друзей отмечают школьный выпускной и делятся планами на будущее, мечтая связать свою жизнь ... 9.2 10 13
Info! Золотая раздача, скачанное не засчитывается.
Торрент: Зарегистрирован [2018-12-17 12:46] · скачан: 465 раз
Статус: √ проверено
Размер: 8.71 GB
Как cкачать? Как скачать Желтый глаз тигра через торрент | qTorrent

% Раздел Тема Автор DL S | L
Наши сериалы [ 11.95 GB ] Желтый глаз тигра / Серии: 1-16 из 16 [2018 HDTVRip-AVC] bober100 Скачать
2 | 0
Наши сериалы [ 10.29 GB ] Жёлтый глаз тигра / Серии: 1-16 из 16 [2018 SATRip-AVC] aleksan55 Скачать
3 | 0
Наши сериалы [ 26.89 GB ] Желтый глаз тигра / Серии: 1-16 из 16 [2018 WEB-DL 1080p] bober100 Скачать
2 | 0
Наши сериалы [ 18.28 GB ] Желтый глаз тигра / Серии: 1-16 из 16 [2018 WEB-DL 720p] bober100 Скачать
1 | 0
Наши сериалы [ 10.83 GB ] Желтый глаз тигра / Серии: 1-16 из 16 [2018 HDTVRip] bober100 Скачать
1 | 1
Наши сериалы [ 33.86 GB ] Желтый глаз тигра / Серии: 1-16 из 16 [2018 HDTV 1080i] bober100 Скачать
1 | 0
Наши сериалы [ 20.13 GB ] Желтый глаз тигра / Серии: 1-16 из 16 [2018 HDTVRip 720p] bober100 Скачать
1 | 0

28-11-2019 20:33  

Отключить всю рекламу на сайте

    Дорогой пользователь! Огромная просьба, поблагодарите релизера, оцените раздачу и оставьте свои комментарий, если Вы скачали Желтый глаз тигра через торрент бесплатно! Внесите свою лепту в развитие PiratBit!
    Комментировать посты могут только пользователи прошедшие не сложную регистрацию
    Показать сообщения:    

    Желтый глаз тигра через торрент
    Скачать бесплатно Желтый глаз тигра
    Желтый глаз тигра скачать торрент
    Желтый глаз тигра смотреть онлайн
    Cкачать фильм Желтый глаз тигра бесплатно
    Желтый глаз тигра скачать торрент в хорошем качестве
    Желтый глаз тигра смотреть онлайн бесплатно в хорошем качестве


    Вы не можете начинать темы
    Вы не можете отвечать на сообщения
    Вы не можете редактировать свои сообщения
    Вы не можете удалять свои сообщения
    Вы не можете голосовать в опросах
    Вы не можете прикреплять файлы к сообщениям
    Вы можете скачивать файлы