2 сезон

iTunes

1 сезон

1

iTunes

iTunes

iTunes

1 сезон

RePack

30

ИГРА 18+

pack

ВАЖНО

!!Акция!!

Alien_RageХит недели

RePack

MK11
pack

Забери бонус

RePack

jed

!!Акция!!

Alien_Rage

RePack

fifa19

RePack

Assassins Creed: Odyssey

RePack

NEED FOR SPEED™ PAYBACK

4 сезон

9 сезон

Бесстыжие 9 сезон

Все сериалы

все сериалы на PB.wtf

RePack

FAR CRY 5
  

Год собаки / Серий: 1 - 4 из 4 (Антон Гойда) [2018 г., мелодрама, WEBRip] pb.wtf

Год собаки через торрент pb.wtf

Размер: 2.54 GB | Добавлен: 1 год 10 мес. назад | Торрент скачан:62 раза
Скачать  

17-12-2018 16:10 Год собаки Скачать торрент  

Год собаки
Год выпуска: 2018
Страна: Украина
Жанр: Мелодрама
Серий: 1 - 4 из 4
Продолжительность: 00:46:24 серия

Режиссер: Антон Гойда

В ролях: Константин Октябрьский, Дана Абызова, Татьяна Малкова, Антон Батырев, Ксения Николаева, Александр Заднепровский

Описание: Саша на много лет забыла о своём красном дипломе юриста, чтобы быть любящей женой и домохозяйкой. Её смысл жизни – муж Костя и их собака Герда. Но мнимое счастье рушится в один день, когда в квартиру приходит незнакомая девица, и муж выставляет Сашу за порог…
Качество: WEBRip
Формат: AVI
Видео кодек: XviD
Аудио кодек: AC3
Видео: XviD, ~ 1760 Кбит/с, 720x400
Аудиo: Русский, AC3, 2 ch, 192 Кбит/с
Видео
Идентификатор : 0
Формат : MPEG-4 Visual
Профиль формата : Advanced Simple@L5
Настройки формата : BVOP1 / Custom Matrix
Параметр BVOP формата : 1
Параметр QPel формата : Нет
Параметр GMC формата : Без точки перехода
Параметр матрицы формата : Выборочная
Идентификатор кодека : XVID
Идентификатор кодека/Подсказка : XviD
Продолжительность : 46 м. 23 с.
Битрейт : 1760 Кбит/сек
Ширина : 720 пикселей
Высота : 400 пикселей
Соотношение сторон : 16:9
Частота кадров : 25,000 кадров/сек
Цветовое пространство : YUV
Субдискретизация насыщенности : 4:2:0
Битовая глубина : 8 бит
Тип развёртки : Прогрессивная
Метод сжатия : С потерями
Бит/(Пиксели*Кадры) : 0.244
Размер потока : 584 Мбайт (90%)
Библиотека кодирования : XviD 73

Аудио
Идентификатор : 1
Формат : AC-3
Формат/Информация : Audio Coding 3
Коммерческое название : Dolby Digital
Идентификатор кодека : 2000
Продолжительность : 46 м. 23 с.
Вид битрейта : Постоянный
Битрейт : 192 Кбит/сек
Каналы : 2 канала
Channel layout : L R
Частота : 48,0 КГц
Частота кадров : 31,250 кадров/сек (1536 SPF)
Битовая глубина : 16 бит
Метод сжатия : С потерями
Размер потока : 63,7 Мбайт (10%)
Выравнивание : Разделение по промежуткам
Продолжительность промежутка : 40 мс. (1,00 видеокадр)
Время предзагрузки промежутка : 500 мс.
ServiceKind/String : Complete Main

скриншот   скриншот   скриншот   скриншот   скриншот  

pb.wtf



Скачать Год собаки через торрент http://pic1.kartinco.top/images/12/ftuo9.jpg Скачать фильм Год собаки через торрент бесплантно в хорошем качестве Описание: Саша на много лет забыла о своём красном дипломе юриста, чтобы быть любящей женой и домохозяйкой. Её смысл жизни – муж Костя и их ... 9.7 10 3
Торрент: Зарегистрирован [2018-12-17 16:10] · скачан: 62 раз
Статус: √ проверено
Размер: 2.54 GB
Как cкачать? Как скачать Год собаки через торрент | qTorrent

% Раздел Тема Автор DL S | L
Наши сериалы [ 4.11 GB ] Год собаки / Серии: 1-4 из 4 [2018 Мело WEBRip 720p] Русский oleg8 Скачать
1 | 0

28-11-2019 20:33  

Отключить всю рекламу на сайте

    Дорогой пользователь! Огромная просьба, поблагодарите релизера, оцените раздачу и оставьте свои комментарий, если Вы скачали Год собаки через торрент бесплатно! Внесите свою лепту в развитие PiratBit!
    Комментировать посты могут только пользователи прошедшие не сложную регистрацию
    Показать сообщения:    

    Год собаки через торрент
    Скачать бесплатно Год собаки
    Год собаки скачать торрент
    Год собаки смотреть онлайн
    Cкачать фильм Год собаки бесплатно
    Год собаки скачать торрент в хорошем качестве
    Год собаки смотреть онлайн бесплатно в хорошем качестве


    Вы не можете начинать темы
    Вы не можете отвечать на сообщения
    Вы не можете редактировать свои сообщения
    Вы не можете удалять свои сообщения
    Вы не можете голосовать в опросах
    Вы не можете прикреплять файлы к сообщениям
    Вы можете скачивать файлы