Ссылка на приватное зеркало всего за 1$. Внимание количество ограничено!!!

OK

1+1

iTunes

мы

OK

1

WEB-DLRip

Джокер

Пифагор

Ведьмак / The Witcher сериал

Лицензия

ПШазам

ОК

Оно 2

iTunes

30
pack

Вам бонус

ВАЖНО

!!Акция!!

Alien_RageХит недели

RePack

Resident Evil 21

ИГРА 18+

pack

RePack

jed

!!Акция!!

Alien_Rage

RePack

fifa19

RePack

Assassins Creed: Odyssey

RePack

NEED FOR SPEED™ PAYBACK

4 сезон

9 сезон

Бесстыжие 9 сезон

Все сериалы

все сериалы на PB.wtf

RePack

FAR CRY 5
  

Уничтожение / The Take Down (Дэвид Ньютон) [2017, боевик, WEB-DL 720p] MVO ["Синема УС"] pb.wtf

Уничтожение через торрент pb.wtf

Размер: 3.42 GB | Добавлен: 1 год 1 мес. назад | Торрент скачан:81 раз
Скачать  

17-12-2018 16:23 Уничтожение Скачать торрент  

Уничтожение / The Take DownГод выпуска: 2017
Страна: Великобритания
Жанр: боевик
Продолжительность: 01:32:32
Перевод: Любительский (многоголосый) | "Синема УС"
Субтитры: отсутствуют

Режиссер: Дэвид Ньютон

rating

В ролях:

Катрина Дерден, Жан-Поль Ли, Шон Лервилл, Конор Бору, Дэвид Чун, Эйден Брэйди, Пэрис Стангл, Джек Ягодка, Лорен Плансель, Сонни Луис

Описание:

Когда один из лучших наёмных убийц Лондона решает сотрудничать с властями в обмен на свободу и возможность исправить свои ошибки, его жизнь превращается в бесконечную гонку, ставка в которой - жизни главного героя и его дочери Эмбер.

Качество: WEB-DL 720p
Формат: MKV

Видео: h.264, 4 908 Кбит/с, 1280x532
Аудио#1: Русский, (AC3, 2 ch, 384 Кбит/с)
скриншот  скриншот  скриншот  

Общее
Уникальный идентификатор : 204212065903381297043498915683560627905 (0x99A1D032A64632B9A1F3ADE955EC9EC1)
Полное имя : D:\The.Take.Down.2017.P.WEB-DL.72Op.mkv
Формат : Matroska
Версия формата : Version 2
Размер файла : 3,42 Гбайт
Продолжительность : 1 ч. 32 м.
Режим общего битрейта : Переменный
Общий поток : 5294 Кбит/сек
Дата кодирования : UTC 2018-12-16 06:12:48
Программа кодирования : mkvmerge v8.3.0 ('Over the Horizon') 64bit
Библиотека кодирования : libebml v1.3.1 + libmatroska v1.4.2

Видео
Идентификатор : 1
Формат : AVC
Формат/Информация : Advanced Video Codec
Профиль формата : High@L4.1
Параметр CABAC формата : Да
Параметр RefFrames формата : 4 кадра
Идентификатор кодека : V_MPEG4/ISO/AVC
Продолжительность : 1 ч. 32 м.
Вид битрейта : Переменный
Битрейт : 4908 Кбит/сек
Максимальный битрейт : 5500 Кбит/сек
Ширина : 1280 пикселей
Высота : 532 пикселя
Соотношение сторон : 2,40:1
Режим частоты кадров : Постоянный
Частота кадров : 23,976 (24000/1001) кадра/сек
Стандарт вещания : Component
Цветовое пространство : YUV
Субдискретизация насыщенности : 4:2:0
Битовая глубина : 8 бит
Тип развёртки : Прогрессивная
Бит/(Пиксели*Кадры) : 0.294
Размер потока : 3,11 Гбайт (91%)
Default : Да
Forced : Нет
Цветовой диапазон : Limited
Основные цвета : BT.709
Характеристики трансфера : BT.709
Коэффициенты матрицы : BT.709

Аудио
Идентификатор : 2
Формат : AC-3
Формат/Информация : Audio Coding 3
Расширение режима : CM (complete main)
Параметр Endianness формата : Big
Идентификатор кодека : A_AC3
Продолжительность : 1 ч. 32 м.
Вид битрейта : Постоянный
Битрейт : 384 Кбит/сек
Каналы : 2 канала
Расположение каналов : Front: L R
Частота : 48,0 КГц
Частота кадров : 31,250 кадров/сек (1536 spf)
Метод сжатия : С потерями
Размер потока : 254 Мбайт (7%)
Default : Да
Forced : Нет

pb.wtf



Скачать Уничтожение через торрент https://d.radikal.ru/d08/1812/d0/cfa4249fa20c.jpg Скачать фильм Уничтожение через торрент бесплантно в хорошем качестве Описание: Когда один из лучших наёмных убийц Лондона решает сотрудничать с властями в обмен на свободу и возможность исправить свои ошибки, ... 8.2 10 5
Торрент: Зарегистрирован [2018-12-17 16:23] · скачан: 81 раз
Статус: T временная
Размер: 3.42 GB
Как cкачать? Как скачать Уничтожение через торрент | qTorrent

% Раздел Тема Автор DL S | L
T Фильмы (мультфильмы) cо спонсором показа (Новинки AVI/MKV) [ 1.37 GB ] Уничтожение / The Take Down [2017 WEB-DLRip] MVO ["Синема УС"] bober100 Скачать
1 | 0

28-11-2019 20:33  

Отключить всю рекламу на сайте

17-12-2018 16:29 Уничтожение Скачать торрент  

Страна: Великобритания
Жанр: боевик

Дальше можно не смотреть... pb.wtf



    Дорогой пользователь! Огромная просьба, поблагодарите релизера, оцените раздачу и оставьте свои комментарий, если Вы скачали Уничтожение через торрент бесплатно! Внесите свою лепту в развитие PiratBit!
    Комментировать посты могут только пользователи прошедшие не сложную регистрацию
    Показать сообщения:    

    Уничтожение через торрент
    Скачать бесплатно Уничтожение
    Уничтожение скачать торрент
    Уничтожение смотреть онлайн
    Cкачать фильм Уничтожение бесплатно
    Уничтожение скачать торрент в хорошем качестве
    Уничтожение смотреть онлайн бесплатно в хорошем качестве


    Вы не можете начинать темы
    Вы не можете отвечать на сообщения
    Вы не можете редактировать свои сообщения
    Вы не можете удалять свои сообщения
    Вы не можете голосовать в опросах
    Вы не можете прикреплять файлы к сообщениям
    Вы можете скачивать файлы