Ссылка на приватное зеркало нашего сайта всего за 1$. Внимание количество ограничено!!!

2 сезон

iTunes

1 сезон

1

2 сезон

2 сезон

iTunes

1 сезон

RePack

30

Новинка

ВАЖНО

ИГРА 18+

pack

RePack

MK11
pack

Забери бонус

RePack

jed

!!Акция!!

Alien_Rage

RePack

fifa19

RePack

Assassins Creed: Odyssey

RePack

NEED FOR SPEED™ PAYBACK

4 сезон

9 сезон

Бесстыжие 9 сезон

Все сериалы

все сериалы на PB.wtf

RePack

FAR CRY 5
  

Лёгкий, как пёрышко / Light as a Feather / Сезон: 1 / Серии: 1-10 из 10 (Алексис О. Коричински) [2018, Триллер, WEBRip 720p] MVO [BaibaKo] pb.wtf

Лёгкий, как пёрышко через торрент pb.wtf

Размер: 5.75 GB | Добавлен: 1 год 3 мес. назад | Торрент скачан:10 раз
Скачать  

17-12-2018 17:46 Лёгкий, как пёрышко Скачать торрент  

Лёгкий, как пёрышко / Light as a Feather Год выпуска: 2018
Страна: США
Жанр: Триллер
Продолжительность: ~ 00:30:00 серия
Перевод: Профессиональный многоголосый | BaibaKo
Субтитры: Английские

Режиссер: Алексис О. Коричински

rating


В ролях: Аджиона Алексус, Лиана Либерато, Пейтон Лист, Дориан Браун, Хейли Рэмм, Джордан Родригез, Дилан Спрейберри, Бриэнн Тджу, Харли Грэхэм

Описание: Компания девочек-подростков связывается с тёмными силами, когда начинает играть в мистическую игру «Легкий, как перышко — твердый, как дерево». Получая зловещие предсказания, они начинают сталкиваться со сверхъестественными последствиями игры, и вскоре одна за другой умирают именно так, как было предсказано.

Качество: WEBRip 720p
Формат: MKV

Видео: MPEG-4 AVC, 1280x720 (16:9), 23.976 fps, 2 285 Kbps, 0.103 bits/pixel
Аудио: 48 kHz, AC3, 2 ch, 384 kbps | Rus
Аудио: 48 kHz, AC3, 2 ch, 384 kbps | Eng
скриншот  скриншот  скриншот  скриншот  скриншот  

General

Complete name : Downloads\Лёгкая, как пёрышко. Сериал. 2018. BaibaKo (WEBRip 720p)\Light.as.a.Feather.s01e01. Жёсткая как доска.mkv
Format : Matroska
Format version : Version 4 / Version 2
File size : 529 MiB
Duration : 23mn 44s
Overall bit rate : 3 115 Kbps
Writing application : mkvmerge v25.0.0 ('Prog Noir') 64-bit
Writing library : libebml v1.3.6 + libmatroska v1.4.9
DURATION : 00:23:44.768000000
NUMBER_OF_FRAMES : 44524
NUMBER_OF_BYTES : 68388864
_STATISTICS_WRITING_APP : mkvmerge v25.0.0 ('Prog Noir') 64-bit
_STATISTICS_WRITING_DATE_UTC : 2018-10-17 00:37:26
_STATISTICS_TAGS : BPS DURATION NUMBER_OF_FRAMES NUMBER_OF_BYTES
Video #1
ID : 1
Format : AVC
Format/Info : Advanced Video Codec
Format profile : High@L3.1
Format settings, CABAC : Yes
Format settings, ReFrames : 5 frames
Codec ID : V_MPEG4/ISO/AVC
Duration : 23mn 44s
Bit rate : 2 285 Kbps
Width : 1 280 pixels
Height : 720 pixels
Display aspect ratio : 16:9
Frame rate mode : Constant
Frame rate : 23.976 fps
Color space : YUV
Chroma subsampling : 4:2:0
Bit depth : 8 bits
Scan type : Progressive
Bits/(Pixel*Frame) : 0.103
Stream size : 388 MiB (73%)
Language : English
Default : Yes
Forced : No
Audio #2
ID : 2
Format : AC-3
Format/Info : Audio Coding 3
Mode extension : CM (complete main)
Format settings, Endianness : Big
Codec ID : A_AC3
Duration : 23mn 44s
Bit rate mode : Constant
Bit rate : 384 Kbps
Channel(s) : 2 channels
Channel positions : Front: L R
Sampling rate : 48.0 KHz
Bit depth : 16 bits
Compression mode : Lossy
Stream size : 65.2 MiB (12%)
Language : Russian
Default : Yes
Forced : No
Audio #3
ID : 3
Format : AC-3
Format/Info : Audio Coding 3
Mode extension : CM (complete main)
Format settings, Endianness : Big
Codec ID : A_AC3
Duration : 23mn 44s
Bit rate mode : Constant
Bit rate : 384 Kbps
Channel(s) : 2 channels
Channel positions : Front: L R
Sampling rate : 48.0 KHz
Bit depth : 16 bits
Compression mode : Lossy
Stream size : 65.2 MiB (12%)
Language : English
Default : No
Forced : No
Text #4
ID : 4
Format : UTF-8
Codec ID : S_TEXT/UTF8
Codec ID/Info : UTF-8 Plain Text
Language : English
Default : No
Forced : No

Внимание! Раздача ведётся путём добавления новых серий; при каждом добавлении создаётся новый торрент. Чтобы начать докачку новой серии, пользователям необходимо сделать следующее:
(1) остановить скачивание,
(2) удалить старый торрент у себя из клиента (старые серии удалять не надо),
(3) скачать новый торрент и запустить его у себя в клиенте вместо старого, при этом указать клиенту путь в старую папку куда и должно происходить скачивание новых серий.
Ваш клиент при этом должен произвести хеширование (проверку) старой папки (если не производит сам - помогите ему сделать это), и будет докачивать только те серии которых у вас ещё нет. Старые серии при этом не удаляются, а продолжают раздаваться!
Eсли вы уже удалили старые серии, то предотвратить повторную закачку старых серий можно, отжав галочку в соответствующих местах при запуске нового торрента. По возможности, желательно не удалять старые серии как можно дольше чтобы релизёр не столько продолжал раздавать старые серии, а смог сконцентрироваться на новых.
pb.wtf



Скачать Лёгкий, как пёрышко через торрент http://img11.lostpic.net/2018/11/15/50e53cf04066047242c44b272e0ce56a.png Скачать фильм Лёгкий, как пёрышко через торрент бесплантно в хорошем качестве Описание: Компания девочек-подростков связывается с тёмными силами, когда начинает играть в мистическую игру «Легкий, как перышко — ... 10 10 2
Торрент: Зарегистрирован [2019-08-10 21:03] · скачан: 10 раз
Статус: √ проверено
Размер: 5.75 GB
Как cкачать? Как скачать Лёгкий, как пёрышко через торрент | qTorrent

% Раздел Тема Автор DL S | L
Зарубежные сериалы [ 20.64 GB ] Легкий как перышко / Light as a Feather / Сезон: 2 / Серии: 1-16 из 16 [2019 WEB-DL 1080p] MVO [TVShows] bober100 Скачать
1 | 0
Зарубежные сериалы [ 9.15 GB ] Легкий как перышко / Light as a Feather / Сезон: 1 / Серии: 1-10 из 10 [2018 WEB-DL 1080p] [MVO] killermax2013 Скачать
1 | 0
Зарубежные сериалы [ 3.6 GB ] Легкий как перышко / Light as a Feather / Сезон: 1 / Серии: 1-10 из 10 [2018 WEB-DLRip] [MVO] killermax2013 Скачать
1 | 0

28-11-2019 20:33  

Отключить всю рекламу на сайте

    Дорогой пользователь! Огромная просьба, поблагодарите релизера, оцените раздачу и оставьте свои комментарий, если Вы скачали Лёгкий, как пёрышко через торрент бесплатно! Внесите свою лепту в развитие PiratBit!
    Комментировать посты могут только пользователи прошедшие не сложную регистрацию
    Показать сообщения:    

    Лёгкий, как пёрышко через торрент
    Скачать бесплатно Лёгкий, как пёрышко
    Лёгкий, как пёрышко скачать торрент
    Лёгкий, как пёрышко смотреть онлайн
    Cкачать фильм Лёгкий, как пёрышко бесплатно
    Лёгкий, как пёрышко скачать торрент в хорошем качестве
    Лёгкий, как пёрышко смотреть онлайн бесплатно в хорошем качестве


    Вы не можете начинать темы
    Вы не можете отвечать на сообщения
    Вы не можете редактировать свои сообщения
    Вы не можете удалять свои сообщения
    Вы не можете голосовать в опросах
    Вы не можете прикреплять файлы к сообщениям
    Вы можете скачивать файлы