2 сезон

iTunes

1 сезон

1

iTunes

iTunes

iTunes

1 сезон

RePack

30

ИГРА 18+

pack

ВАЖНО

!!Акция!!

Alien_RageХит недели

RePack

MK11
pack

Забери бонус

RePack

jed

!!Акция!!

Alien_Rage

RePack

fifa19

RePack

Assassins Creed: Odyssey

RePack

NEED FOR SPEED™ PAYBACK

4 сезон

9 сезон

Бесстыжие 9 сезон

Все сериалы

все сериалы на PB.wtf

RePack

FAR CRY 5
  

Чужая кровь / Сезон: 1 / Серии: 1-20 из 20 (Ольга Субботина) [2018, Мелодрама, HDTV 1080i] pb.wtf

Чужая кровь через торрент pb.wtf

Размер: 42.88 GB | Добавлен: 1 год 10 мес. назад | Торрент скачан:17 раз
Скачать  

17-12-2018 18:30 Чужая кровь Скачать торрент  

Чужая кровьГод выпуска: 2018
Страна: Россия
Жанр: Мелодрама
Продолжительность: ~ 00:50:00
Субтитры: отсутствуют

Режиссер: Ольга Субботина



В ролях:

Карина Андоленко, Павел Баршак, Дарья Мороз, Виктор Добронравов, Артём Ткаченко, Лаура Кеосаян, Анна Здор, Людмила Чурсина, Екатерина Кузнецова, Роман Полянский, Александра Бортич, Антон Соколов

Описание:

Драматическая семейная сага, разворачивающаяся на протяжении нескольких десятилетий. В основе сюжета - история благополучной семьи Горбатовых: партийного работника Бориса и его жены - русской красавицы Зины. Однако за респектабельным фасадом бушуют сокрушительные страсти. Ревность, измены, отчуждение, разводы вторгаются в отношения близких людей на протяжении сорока лет. И только настоящая любовь сможет разрушить родовое проклятие и сделать чужих детей родными....

Качество: HDTV 1080i
Формат: TS

Видео: MPEG-TS AVC, ~ 5700 Кбит/с, 1920x1080
Аудио#1: Русский (AC3, 6 ch, 384 Кбит/с)
Аудио#2: Русский (MP2, 2 ch, 192 Кбит/с)
скриншот  скриншот  скриншот  скриншот  

Общее
Идентификатор : 1 (0x1)
Полное имя : D:ЗаписьChuzhaja krov.HDTV(1080i).GeneralFilm1.Chuzhaja krov.HDTV(1080i).GeneralFilm.ts
Формат : MPEG-TS
Размер файла : 2,15 Гбайт
Продолжительность : 46 м. 0 с.
Режим общего битрейта : Переменный
Общий поток : 6674 Кбит/сек

Видео
Идентификатор : 1904 (0x770)
Идентификатор меню : 80 (0x50)
Формат : AVC
Формат/Информация : Advanced Video Codec
Профиль формата : High@L4
Параметр CABAC формата : Да
Параметр ReFrames формата : 3 кадра
Идентификатор кодека : 27
Продолжительность : 46 м. 0 с.
Битрейт : 5762 Кбит/сек
Ширина : 1920 пикселей
Высота : 1080 пикселей
Соотношение сторон : 16:9
Частота кадров : 25,000 кадров/сек
Стандарт вещания : Component
Цветовое пространство : YUV
Субдискретизация насыщенности : 4:2:0
Битовая глубина : 8 бит
Тип развёртки : Чересстрочная
Метод сохранения типа развёртки : Раздельные поля
Порядок развёртки : Верхнее поле первое
Бит/(Пиксели*Кадры) : 0.111
Размер потока : 1,85 Гбайт (86%)
Цветовой диапазон : Limited
Основные цвета : BT.709
Характеристики трансфера : BT.709
Коэффициенты матрицы : BT.709

Аудио #1
Идентификатор : 2904 (0xB58)
Идентификатор меню : 80 (0x50)
Формат : AC-3
Формат/Информация : Audio Coding 3
Расширение режима : CM (complete main)
Параметр Endianness формата : Big
Идентификатор кодека : 6
Продолжительность : 46 м. 0 с.
Вид битрейта : Постоянный
Битрейт : 384 Кбит/сек
Каналы : 6 каналов
Расположение каналов : Front: L C R, Side: L R, LFE
Частота : 48,0 КГц
Частота кадров : 31,250 кадров/сек (1536 spf)
Битовая глубина : 16 бит
Метод сжатия : С потерями
Задержка видео : -120 мс.
Размер потока : 126 Мбайт (6%)
Язык : Russian

Аудио #2
Идентификатор : 2905 (0xB59)
Идентификатор меню : 80 (0x50)
Формат : MPEG Audio
Версия формата : Version 1
Профиль формата : Layer 2
Идентификатор кодека : 3
Продолжительность : 46 м. 0 с.
Вид битрейта : Постоянный
Битрейт : 192 Кбит/сек
Каналы : 2 канала
Частота : 48,0 КГц
Метод сжатия : С потерями
Задержка видео : -120 мс.
Размер потока : 63,2 Мбайт (3%)
Язык : Russian

Когда раздача ведётся путём добавления новых серий, при каждом добавлении создётся новый торрент. Чтобы начать докачку новой серии, пользователям необходимо сделать следующее:
(1) остановить скачивание,
(2) удалить старый торрент у себя из клиента (старые серии удалять не надо),
(3) скачать новый торрент и запустить его у себя в клиенте вместо старого, при этом указать клиенту путь в старую папку, куда и должно происходить скачивание новых серий.
Ваш клиент при этом должен произвести хеширование (проверку) старой папки (если не производит сам - помогите ему сделать это), и будет докачивать только те серии, которых у вас ещё нет. Старые серии при этом не удаляются, а продолжают раздаваться!
Eсли вы уже удалили старые серии, то предотвратить повторную закачку старых серий можно, отжав галочку в соответсвующих местах при запуске нового торрента. По возможности, желательно не удалять старые серии как можно дольше, чтобы релизёр не столько продолжал раздавать старые серии, а смог сконцентрироваться на новых.

pb.wtf



Скачать Чужая кровь через торрент http://a.radikal.ru/a20/1812/5f/d4d2e7977cf7.jpg Скачать фильм Чужая кровь через торрент бесплантно в хорошем качестве Описание: Драматическая семейная сага, разворачивающаяся на протяжении нескольких десятилетий. В основе сюжета - история благополучной ... 10 10 3
Info! Золотая раздача, скачанное не засчитывается.
Торрент: Зарегистрирован [2018-12-28 04:29] · скачан: 17 раз
Статус: √ проверено
Размер: 42.88 GB
Как cкачать? Как скачать Чужая кровь через торрент | qTorrent

% Раздел Тема Автор DL S | L
Наши сериалы [ 14.35 GB ] Чужая кровь / Сезон: 1 / Серии: 1-20 из 20 [2018 Мело HDTVRip-AVC] bober100 Скачать
1 | 0
Наши сериалы [ 12.92 GB ] Чужая кровь / Сезон: 1 / Серии: 1-20 из 20 [2018 Мело HDTVRip] bober100 Скачать
1 | 0
Наши сериалы [ 24.16 GB ] Чужая кровь / Сезон: 1 / Серии: 1-20 из 20 [2018 Мело HDTVRip 720p] bober100 Скачать
1 | 1
Наши сериалы [ 12.11 GB ] Чужая кровь / Сезон: 1 / Серии: 1-20 из 20 [2018 Мело SATRip] bober100 Скачать
1 | 0


Последний раз редактировалось: bober100 (2018-12-28 04:29), всего редактировалось 5 раз(а)

28-11-2019 20:33  

Отключить всю рекламу на сайте

19-12-2018 19:34 Чужая кровь Скачать торрент  

TS на 30 Гб + я плакал - не лень трудиться , чтобы руки отсохли pb.wtf



    Дорогой пользователь! Огромная просьба, поблагодарите релизера, оцените раздачу и оставьте свои комментарий, если Вы скачали Чужая кровь через торрент бесплатно! Внесите свою лепту в развитие PiratBit!
    Комментировать посты могут только пользователи прошедшие не сложную регистрацию
    Показать сообщения:    

    Чужая кровь через торрент
    Скачать бесплатно Чужая кровь
    Чужая кровь скачать торрент
    Чужая кровь смотреть онлайн
    Cкачать фильм Чужая кровь бесплатно
    Чужая кровь скачать торрент в хорошем качестве
    Чужая кровь смотреть онлайн бесплатно в хорошем качестве


    Вы не можете начинать темы
    Вы не можете отвечать на сообщения
    Вы не можете редактировать свои сообщения
    Вы не можете удалять свои сообщения
    Вы не можете голосовать в опросах
    Вы не можете прикреплять файлы к сообщениям
    Вы можете скачивать файлы