Ссылка на приватное зеркало нашего сайта всего за 1$. Внимание количество ограничено!!!

2 сезон

iTunes

1 сезон

1

iTunes

iTunes

iTunes

1 сезон

RePack

30

ИГРА 18+

pack

ВАЖНО

!!Акция!!

Alien_RageХит недели

RePack

MK11
pack

Забери бонус

RePack

jed

!!Акция!!

Alien_Rage

RePack

fifa19

RePack

Assassins Creed: Odyssey

RePack

NEED FOR SPEED™ PAYBACK

4 сезон

9 сезон

Бесстыжие 9 сезон

Все сериалы

все сериалы на PB.wtf

RePack

FAR CRY 5
  

Пуля / Сезон: 1 / Серии: 1-10 из 10 (Алексей Быстрицкий) [2018, Детектив, криминал, WEB-DL 1080p] pb.wtf

Пуля через торрент pb.wtf

Размер: 20.07 GB | Добавлен: 1 год 10 мес. назад | Торрент скачан:42 раза
Скачать  

17-12-2018 19:43 Пуля Скачать торрент  

Пуля Год выпуска: 2018
Страна: Россия
Жанр: Детектив, криминал
Продолжительность: ~ 00:45:00 серия
Субтитры: отсутствуют

Режиссер: Алексей Быстрицкий




В ролях:

Никита Панфилов, Иева Андреевайте, Максим Щёголев, Анатолий Кот, Александр Яцко, Олег Кассин, Анна Галлямова, Антон Кузнецов, Роман Лянчук

Описание:

Главный герой — командир отряда специального назначения ГРУ, майор Кирилл Романов (Никита Панфилов), получает таинственное сообщение от виновника смерти его матери. В письме сообщается, что автор не причастен к её кончине. Кирилл в замешательстве, он решает прервать военный контракт и вернуться в Москву, чтобы встретиться с преступником лично и узнать подробности трагедии, которая произошла в Сибири, на месте, где собиралась базироваться нефтяная компания. Больше двадцати лет прошло с той страшной ночи, когда во время пожара погибла мать Романова и новые обстоятельства побуждают Кирилла провести собственное расследование трагедии. Для этого он устраивается работать в ту самую нефтяную компанию, где узнает, что на предприятии происходят странные события. Там же он знакомится с Дашей (Иева Андреевайте), родственники которой погибли при тех же обстоятельствах, что и мать Кирилла.

Качество: WEB-DL 1080p
Формат: MKV

Видео: 1920х1080 (16:9), 25 fps, AVC MPEG-4 (x264), High@L4.0 ~ 6000 kbps avg, 0.152 bit/pixel
Аудио: 48 kHz, MPEG Layer 2, 2 ch, ~ 192 kbps avg
скриншот  скриншот  скриншот  скриншот  

General
Unique ID : 202879294819950808148842768232129885052 (0x98A1218298A53438937B474A8CE5F37C)
Complete name : D:\Pulya.2018.WEB-DL.(1080p).Nikolspup\Pulya.(01.seriya.iz.10).2018.WEB-DL.(1080p).Nikolspup.mkv
Format : Matroska
Format version : Version 4 / Version 2
File size : 1.97 GiB
Duration : 46 min 2 s
Overall bit rate mode : Constant
Overall bit rate : 6 137 kb/s
Encoded date : UTC 2018-12-17 19:11:58
Writing application : mkvmerge v7.8.0 ('River Man') 32bit built on Mar 27 2015 16:18:02
Writing library : libebml v1.3.1 + libmatroska v1.4.2

Video
ID : 1
Format : AVC
Format/Info : Advanced Video Codec
Format profile : High@L4.1
Format settings : 2 Ref Frames
Format settings, CABAC : No
Format settings, ReFrames : 2 frames
Codec ID : V_MPEG4/ISO/AVC
Duration : 46 min 2 s
Bit rate mode : Constant
Bit rate : 6 000 kb/s
Width : 1 920 pixels
Height : 1 080 pixels
Display aspect ratio : 16:9
Frame rate mode : Constant
Frame rate : 25.000 FPS
Standard : PAL
Color space : YUV
Chroma subsampling : 4:2:0
Bit depth : 8 bits
Scan type : Progressive
Bits/(Pixel*Frame) : 0.116
Stream size : 1.91 GiB (97%)
Default : Yes
Forced : No
Color range : Limited
Color primaries : BT.709
Transfer characteristics : BT.709
Matrix coefficients : BT.709

Audio
ID : 2
Format : AC-3
Format/Info : Audio Coding 3
Codec ID : A_AC3
Duration : 46 min 2 s
Bit rate mode : Constant
Bit rate : 192 kb/s
Channel(s) : 2 channels
Channel positions : Front: L R
Sampling rate : 48.0 kHz
Frame rate : 31.250 FPS (1536 SPF)
Bit depth : 16 bits
Compression mode : Lossy
Stream size : 63.2 MiB (3%)
Language : Russian
Service kind : Complete Main
Default : Yes
Forced : No

Внимание! Раздача ведётся путём добавления новых серий; при каждом добавлении создаётся новый торрент. Чтобы начать докачку новой серии, пользователям необходимо сделать следующее: (1) остановить скачивание, (2) удалить старый торрент у себя из клиента (старые серии удалять не надо), (3) скачать новый торрент и запустить его у себя в клиенте вместо старого, при этом указать клиенту путь в старую папку куда и должно происходить скачивание новых серий.
Ваш клиент при этом должен произвести хеширование (проверку) старой папки (если не производит сам - помогите ему сделать это), и будет докачивать только те серии которых у вас ещё нет. Старые серии при этом не удаляются, а продолжают раздаваться!
Eсли вы уже удалили старые серии, то предотвратить повторную закачку старых серий можно, отжав галочку в соответсвующих местах при запуске нового торрента.
pb.wtf



Скачать Пуля через торрент http://img14.lostpic.net/2018/12/17/6a7780df3c4d6e4f7f6a9ae25a5a973e.jpg Скачать фильм Пуля через торрент бесплантно в хорошем качестве Описание: Главный герой — командир отряда специального назначения ГРУ, майор Кирилл Романов (Никита Панфилов), получает таинственное ... 9.4 10 5
Торрент: Зарегистрирован [2018-12-22 07:11] · скачан: 42 раз
Статус: √ проверено
Размер: 20.07 GB
Как cкачать? Как скачать Пуля через торрент | qTorrent

% Раздел Тема Автор DL S | L
Космос [ 7.65 GB ] Космические колонии / Space Colonies / Сезон: 1 / Серии: 1-3 из 3 [2018 Документальный научно-популярный космос HDTV 1080i] bober100 Скачать
1 | 0
Зарубежные сериалы [ 25.76 GB ] Пули / Bullets / Сезон: 1 / Серии: 1-10 из 10 [2018 HDTV 1080p] MVO [Амедиа] bober100 Скачать
1 | 0
Наши сериалы [ 5.49 GB ] Пуля / Сезон: 1 / Серии: 1-10 из 10 [2018 WEBRip-AVC] bober100 Скачать
1 | 0
Наши сериалы [ 6.08 GB ] Пуля / Сезон: 1 / Серии: 1-10 из 10 [2018 SATRip] bober100 Скачать
1 | 0
Наши сериалы [ 12.11 GB ] Пуля / Сезон: 1 / Серии: 1-10 из 10 [2018 WEBRip 720p] bober100 Скачать
1 | 0
Наши сериалы [ 5.94 GB ] Пуля / Сезон: 1 / Серии: 1-10 из 10 [2018 WEB-DLRip] bober100 Скачать
2 | 0
BBC [ 9.01 GB ] BBC. Опасная планета / Dangerous Earth / Сезон: 1 / Серии: 1-3 из 3 [2016 Документальный научно-популярный исследования HDTV 1080i] DVO bober100 Скачать
1 | 0

28-11-2019 20:33  

Отключить всю рекламу на сайте

    Дорогой пользователь! Огромная просьба, поблагодарите релизера, оцените раздачу и оставьте свои комментарий, если Вы скачали Пуля через торрент бесплатно! Внесите свою лепту в развитие PiratBit!
    Комментировать посты могут только пользователи прошедшие не сложную регистрацию
    Показать сообщения:    

    Пуля через торрент
    Скачать бесплатно Пуля
    Пуля скачать торрент
    Пуля смотреть онлайн
    Cкачать фильм Пуля бесплатно
    Пуля скачать торрент в хорошем качестве
    Пуля смотреть онлайн бесплатно в хорошем качестве


    Вы не можете начинать темы
    Вы не можете отвечать на сообщения
    Вы не можете редактировать свои сообщения
    Вы не можете удалять свои сообщения
    Вы не можете голосовать в опросах
    Вы не можете прикреплять файлы к сообщениям
    Вы можете скачивать файлы