Ссылка на приватное зеркало всего за 1$. Внимание количество ограничено!!!

OK

1+1

iTunes

мы

OK

1

WEB-DLRip

Джокер

Пифагор

Ведьмак / The Witcher сериал

iTunes

ПШазам

ОК

Оно 2

iTunes

30
pack

Вам бонус

ВАЖНО

!!Акция!!

Alien_RageХит недели

RePack

Resident Evil 21

ИГРА 18+

pack

RePack

jed

RePack

fifa19

RePack

Assassins Creed: Odyssey

RePack

NEED FOR SPEED™ PAYBACK

4 сезон

9 сезон

Бесстыжие 9 сезон

Все сериалы

все сериалы на PB.wtf

RePack

FAR CRY 5
  

Как Джефф пытался спасти мир / When Jeff Tried to Save the World (Кендалл Голдберг) [2018 г., Драма, комедия, WEB-DLRip, Любительский (многоголосый) (Синема УС)] pb.wtf

Как Джефф пытался спасти мир через торрент pb.wtf

Размер: 1.31 GB | Добавлен: 1 год 1 мес. назад | Торрент скачан:11 раз
Скачать  

18-12-2018 04:39 Как Джефф пытался спасти мир Скачать торрент  

Как Джефф пытался спасти мир / When Jeff Tried to Save the World
Год выпуска: 2018
Страна: США
Жанр: Драма, комедия
Продолжительность: 01:32:44
Перевод: Любительский (многоголосый) (Синема УС)
Субтитры: Отсутствуют

Режиссер: Кендалл Голдберг

rating

В ролях: Джон Хидер, Джим О’Хейр, Брендан Мейер, Майя Эрскин, Стив Берг, Анна Конкл, Кэнди Мило, Кит Капферер, Роберт Брюлер, Шэйн Симмонс

Описание: Когда Джефф, управляющий ретро боулингом, узнает о планах владельца продать его, то решает спасти боулинг, во что бы это ему ни стало.

Доп. информация: Присутствуют вставки текстовой рекламы

Качество: WEB-DLRip
Формат: AVI
Видео кодек: XviD
Аудио кодек: AC3
Видео: XviD, 720x304, ~1627 Kbps
Аудио#1: AC-3, 2 ch, 384 Kbps
скриншот   скриншот   скриншот   скриншот  

Общее
Полное имя : C:\_\Как Джефф пытался спасти мир\When Jeff Tried to Save the World 2018 WEB-DLRip.avi
Формат : AVI
Формат/Информация : Audio Video Interleave
Профиль формата : OpenDML
Размер файла : 1,31 Гбайт
Продолжительность : 1 ч. 32 м.
Общий поток : 2023 Кбит/сек

Видео
Идентификатор : 0
Формат : MPEG-4 Visual
Профиль формата : Advanced Simple@L5
Параметр BVOP формата : 2
Параметр QPel формата : Нет
Параметр GMC формата : Без точки перехода
Параметр матрицы формата : Выборочная
Идентификатор кодека : XVID
Идентификатор кодека/Подсказка : XviD
Продолжительность : 1 ч. 32 м.
Битрейт : 1627 Кбит/сек
Ширина : 720 пикселей
Высота : 304 пикселя
Соотношение сторон : 2,35:1
Частота кадров : 23,976 (24000/1001) кадра/сек
Цветовое пространство : YUV
Субдискретизация насыщенности : 4:2:0
Битовая глубина : 8 бит
Тип развёртки : Прогрессивная
Метод сжатия : С потерями
Бит/(Пиксели*Кадры) : 0.310
Размер потока : 1,05 Гбайт (80%)
Библиотека кодирования : XviD 1.2.1 (UTC 2008-12-04)

Аудио
Идентификатор : 1
Формат : AC-3
Формат/Информация : Audio Coding 3
Расширение режима : CM (complete main)
Параметр Endianness формата : Big
Идентификатор кодека : 2000
Продолжительность : 1 ч. 32 м.
Вид битрейта : Постоянный
Битрейт : 384 Кбит/сек
Каналы : 2 канала
Расположение каналов : Front: L R
Частота : 48,0 КГц
Частота кадров : 31,250 кадров/сек (1536 spf)
Метод сжатия : С потерями
Размер потока : 255 Мбайт (19%)
Выравнивание : Соединение по промежуткам
Продолжительность промежутка : 32 мс. (0,77 видеокадр)

pb.wtf



Скачать Как Джефф пытался спасти мир через торрент http://pic1.kartinco.top/images/12/9idnn.jpg Скачать фильм Как Джефф пытался спасти мир через торрент бесплантно в хорошем качестве Описание: Когда Джефф, управляющий ретро боулингом, узнает о планах владельца продать его, то решает спасти боулинг, во что бы это ему ни ... 5 10 1
Торрент: Зарегистрирован [2018-12-18 04:39] · скачан: 11 раз
Статус: T временная
Размер: 1.31 GB
Как cкачать? Как скачать Как Джефф пытался спасти мир через торрент | qTorrent

28-11-2019 20:33  

Отключить всю рекламу на сайте

18-12-2018 14:05 Как Джефф пытался спасти мир Скачать торрент  

Сразу вспомнился Чувак pb.wtf



    Дорогой пользователь! Огромная просьба, поблагодарите релизера, оцените раздачу и оставьте свои комментарий, если Вы скачали Как Джефф пытался спасти мир через торрент бесплатно! Внесите свою лепту в развитие PiratBit!
    Комментировать посты могут только пользователи прошедшие не сложную регистрацию
    Показать сообщения:    

    Как Джефф пытался спасти мир через торрент
    Скачать бесплатно Как Джефф пытался спасти мир
    Как Джефф пытался спасти мир скачать торрент
    Как Джефф пытался спасти мир смотреть онлайн
    Cкачать фильм Как Джефф пытался спасти мир бесплатно
    Как Джефф пытался спасти мир скачать торрент в хорошем качестве
    Как Джефф пытался спасти мир смотреть онлайн бесплатно в хорошем качестве


    Вы не можете начинать темы
    Вы не можете отвечать на сообщения
    Вы не можете редактировать свои сообщения
    Вы не можете удалять свои сообщения
    Вы не можете голосовать в опросах
    Вы не можете прикреплять файлы к сообщениям
    Вы можете скачивать файлы