Ссылка на приватное зеркало нашего сайта всего за 1$. Внимание количество ограничено!!!

2 сезон

iTunes

iTunes

1

iTunes

iTunes

iTunes

WEBRip

iTunes

30
pack

Вам бонус

ВАЖНО

!!Акция!!

Alien_RageХит недели

RePack

Horizon Zero Dawn

ИГРА 18+

pack

RePack

jed

!!Акция!!

Alien_Rage

RePack

fifa19

RePack

Assassins Creed: Odyssey

RePack

NEED FOR SPEED™ PAYBACK

4 сезон

9 сезон

Бесстыжие 9 сезон

Все сериалы

все сериалы на PB.wtf

RePack

FAR CRY 5
  

Джингл Белл / Jingle Belle (Питер Салливан) [2018, Мюзикл, драма, мелодрама, WEB-DL 720p] MVO [AlphaProject] pb.wtf

Джингл Белл через торрент pb.wtf

Размер: 3.08 GB | Добавлен: 1 год 9 мес. назад | Торрент скачан:7 раз
Скачать  

18-12-2018 05:02 Джингл Белл Скачать торрент  

Джингл Белл / Jingle BelleГод выпуска: 2018
Страна: США
Жанр: Мюзикл, драма, мелодрама
Продолжительность: 01:30:33
Перевод: Любительский (многоголосый) | AlphaProject
Субтитры: отсутствуют

Режиссер: Питер Салливан

rating

В ролях:

Татьяна Али, Корнелиус Смит мл., Лоретта Дивайн, Кешиа Найт Пуллиам, Темпестт Бледсо, Ди Уоллес-Стоун, Вэлари Петтифорд, Обба Бабатунде, Арсема Каян Эллисон, Блейк Энтони Кроуфорд

Описание:

Каждый год Изабелла и ее парень со старшей школы Майкл пели дуэтом на рождественский концерт в своем городе. Но после выпускного Изабелла поехала учиться в колледже Джуллиард в Нью-Йорке, оставив Майкла позади. Годы спустя Изабелла возвращается в родной город, чтобы написать юбилейную песню для концерта. К ее удивлению Майкл - режиссер этого шоу. Смогут ли Изабелла и Майкл оставить прошлое позади и объединиться еще раз?

Качество: WEB-DL 720p
Формат: MKV

Видео: h.264, 4 483 kb/s, 1280x720
Аудио#1: Русский, (AC3, 2 ch, 384 Кбит/с)
скриншот  скриншот  скриншот  

Общее
Уникальный идентификатор : 196803869139024166737370311387223076508 (0x940F0BE5C297E8D3B2C311E4365AAE9C)
Полное имя : D:\Jingle.belle.2018.Pa.WEB-DL.72Op_KOSHARA.mkv
Формат : Matroska
Версия формата : Version 2
Размер файла : 3,08 Гбайт
Продолжительность : 1 ч. 30 м.
Режим общего битрейта : Переменный
Общий поток : 4869 Кбит/сек
Дата кодирования : UTC 2018-12-17 05:29:47
Программа кодирования : mkvmerge v8.3.0 ('Over the Horizon') 64bit
Библиотека кодирования : libebml v1.3.1 + libmatroska v1.4.2

Видео
Идентификатор : 1
Формат : AVC
Формат/Информация : Advanced Video Codec
Профиль формата : High@L4.1
Параметр CABAC формата : Да
Параметр RefFrames формата : 4 кадра
Идентификатор кодека : V_MPEG4/ISO/AVC
Продолжительность : 1 ч. 30 м.
Вид битрейта : Переменный
Битрейт : 4483 Кбит/сек
Максимальный битрейт : 5000 Кбит/сек
Ширина : 1280 пикселей
Высота : 720 пикселей
Соотношение сторон : 16:9
Режим частоты кадров : Постоянный
Частота кадров : 23,976 (24000/1001) кадра/сек
Стандарт вещания : Component
Цветовое пространство : YUV
Субдискретизация насыщенности : 4:2:0
Битовая глубина : 8 бит
Тип развёртки : Прогрессивная
Бит/(Пиксели*Кадры) : 0.199
Размер потока : 2,78 Гбайт (90%)
Default : Да
Forced : Нет
Цветовой диапазон : Limited
Основные цвета : BT.709
Характеристики трансфера : BT.709
Коэффициенты матрицы : BT.709

Аудио
Идентификатор : 2
Формат : AC-3
Формат/Информация : Audio Coding 3
Расширение режима : CM (complete main)
Параметр Endianness формата : Big
Идентификатор кодека : A_AC3
Продолжительность : 1 ч. 30 м.
Вид битрейта : Постоянный
Битрейт : 384 Кбит/сек
Каналы : 2 канала
Расположение каналов : Front: L R
Частота : 48,0 КГц
Частота кадров : 31,250 кадров/сек (1536 spf)
Метод сжатия : С потерями
Размер потока : 249 Мбайт (8%)
Default : Да
Forced : Нет

pb.wtf



Скачать Джингл Белл через торрент https://a.radikal.ru/a23/1812/fc/a7a34c9909d6.jpg Скачать фильм Джингл Белл через торрент бесплантно в хорошем качестве Описание: Каждый год Изабелла и ее парень со старшей школы Майкл пели дуэтом на рождественский концерт в своем городе. Но после выпускного ... 10 10 2
Торрент: Зарегистрирован [2018-12-18 05:02] · скачан: 7 раз
Статус: T временная
Размер: 3.08 GB
Как cкачать? Как скачать Джингл Белл через торрент | qTorrent

% Раздел Тема Автор DL S | L
T Фильмы (мультфильмы) cо спонсором показа (Новинки AVI/MKV) [ 699 MB ] Джингл Белл / Jingle Belle [2018 Мюзикл WEB-DLRip] MVO [AlphaProject] bober100 Скачать
1 | 0

28-11-2019 20:33  

Отключить всю рекламу на сайте

18-12-2018 07:18 Джингл Белл Скачать торрент  

это не улечный маг на постере?pb.wtf



    Дорогой пользователь! Огромная просьба, поблагодарите релизера, оцените раздачу и оставьте свои комментарий, если Вы скачали Джингл Белл через торрент бесплатно! Внесите свою лепту в развитие PiratBit!
    Комментировать посты могут только пользователи прошедшие не сложную регистрацию
    Показать сообщения:    

    Джингл Белл через торрент
    Скачать бесплатно Джингл Белл
    Джингл Белл скачать торрент
    Джингл Белл смотреть онлайн
    Cкачать фильм Джингл Белл бесплатно
    Джингл Белл скачать торрент в хорошем качестве
    Джингл Белл смотреть онлайн бесплатно в хорошем качестве


    Вы не можете начинать темы
    Вы не можете отвечать на сообщения
    Вы не можете редактировать свои сообщения
    Вы не можете удалять свои сообщения
    Вы не можете голосовать в опросах
    Вы не можете прикреплять файлы к сообщениям
    Вы можете скачивать файлы