Ссылка на приватное зеркало всего за 1$. Внимание количество ограничено!!!

iTunes

iTunes

iTunes

1

iTunes

iTunes

iTunes

WEBRip

iTunes

30
pack

$ от Little Big

ВАЖНО

!!Акция!!

Alien_RageХит недели

RePack

Resident Evil 21

ИГРА 18+

pack

RePack

jed

!!Акция!!

Alien_Rage

RePack

fifa19

RePack

Assassins Creed: Odyssey

RePack

NEED FOR SPEED™ PAYBACK

4 сезон

9 сезон

Бесстыжие 9 сезон

Все сериалы

все сериалы на PB.wtf

RePack

FAR CRY 5
  

Вера, любовь и шоколад / Faith, Love & Chocolate (Джеффри Дэй) [2018, комедия, WEB-DL 720p] MVO ["Синема УС"] pb.wtf

Вера, любовь и шоколад через торрент pb.wtf

Размер: 3.16 GB | Добавлен: 1 год 7 мес. назад | Торрент скачан:20 раз
Скачать  

18-12-2018 05:32 Вера, любовь и шоколад Скачать торрент  

Вера, любовь и шоколад / Faith, Love & ChocolateГод выпуска: 2018
Страна: США
Жанр: комедия
Продолжительность: 01:27:21
Перевод: Любительский (многоголосый) | "Синема УС"
Субтитры: отсутствуют

Режиссер: Джеффри Дэй

rating

В ролях:

Сидни Баллок, Ребека Роблз, Кэтлин Эшкрафт, Брук Баттерворт, Габриэль Мари Миллер, Роберт Томпсон, Кэти Феола, Эби ван Андель, Брайс Хокема, Гейб Чандлер

Описание:

Джессика Миллер ныряет во взрослую жизнь сразу после окончания колледжа. Чтобы справится с навалившимися заботами, ей придётся найти в себе веру, открыть коробку с воспоминаниями и познать простые тайны жизни, знакомые только матерям.

Качество: WEB-DL 720p
Формат: MKV

Видео: h.264,4 793 kb/s, 1280x674
Аудио#1: Русский, (AC3, 2 ch, 384 Кбит/с)
скриншот  скриншот  скриншот  

Общее
Уникальный идентификатор : 206950347178348469108034979608861951289 (0x9BB12FE35FE80775B6BCC4F13DE94539)
Полное имя : D:\Faith.Love.and.Chocolate.2018.P.WEB-DL.72Op_KOSHARA.mkv
Формат : Matroska
Версия формата : Version 2
Размер файла : 3,16 Гбайт
Продолжительность : 1 ч. 27 м.
Режим общего битрейта : Переменный
Общий поток : 5179 Кбит/сек
Дата кодирования : UTC 2018-12-17 06:45:02
Программа кодирования : mkvmerge v8.3.0 ('Over the Horizon') 64bit
Библиотека кодирования : libebml v1.3.1 + libmatroska v1.4.2

Видео
Идентификатор : 1
Формат : AVC
Формат/Информация : Advanced Video Codec
Профиль формата : High@L4.1
Параметр CABAC формата : Да
Параметр RefFrames формата : 4 кадра
Идентификатор кодека : V_MPEG4/ISO/AVC
Продолжительность : 1 ч. 27 м.
Вид битрейта : Переменный
Битрейт : 4793 Кбит/сек
Максимальный битрейт : 5500 Кбит/сек
Ширина : 1280 пикселей
Высота : 674 пикселя
Соотношение сторон : 1,899
Режим частоты кадров : Постоянный
Частота кадров : 23,976 (24000/1001) кадра/сек
Стандарт вещания : Component
Цветовое пространство : YUV
Субдискретизация насыщенности : 4:2:0
Битовая глубина : 8 бит
Тип развёртки : Прогрессивная
Бит/(Пиксели*Кадры) : 0.227
Размер потока : 2,86 Гбайт (91%)
Default : Да
Forced : Нет
Цветовой диапазон : Limited
Основные цвета : BT.709
Характеристики трансфера : BT.709
Коэффициенты матрицы : BT.709

Аудио
Идентификатор : 2
Формат : AC-3
Формат/Информация : Audio Coding 3
Расширение режима : CM (complete main)
Параметр Endianness формата : Big
Идентификатор кодека : A_AC3
Продолжительность : 1 ч. 27 м.
Вид битрейта : Постоянный
Битрейт : 384 Кбит/сек
Каналы : 2 канала
Расположение каналов : Front: L R
Частота : 48,0 КГц
Частота кадров : 31,250 кадров/сек (1536 spf)
Метод сжатия : С потерями
Размер потока : 240 Мбайт (7%)
Default : Да
Forced : Нет

pb.wtf



Скачать Вера, любовь и шоколад через торрент https://c.radikal.ru/c01/1812/a8/761cd0de02ac.jpg Скачать фильм Вера, любовь и шоколад через торрент бесплантно в хорошем качестве Описание: Джессика Миллер ныряет во взрослую жизнь сразу после окончания колледжа. Чтобы справится с навалившимися заботами, ей придётся ... 10 10 3
Торрент: Зарегистрирован [2018-12-18 05:32] · скачан: 20 раз
Статус: T временная
Размер: 3.16 GB
Как cкачать? Как скачать Вера, любовь и шоколад через торрент | qTorrent

28-11-2019 20:33  

Отключить всю рекламу на сайте

    Дорогой пользователь! Огромная просьба, поблагодарите релизера, оцените раздачу и оставьте свои комментарий, если Вы скачали Вера, любовь и шоколад через торрент бесплатно! Внесите свою лепту в развитие PiratBit!
    Комментировать посты могут только пользователи прошедшие не сложную регистрацию
    Показать сообщения:    

    Вера, любовь и шоколад через торрент
    Скачать бесплатно Вера, любовь и шоколад
    Вера, любовь и шоколад скачать торрент
    Вера, любовь и шоколад смотреть онлайн
    Cкачать фильм Вера, любовь и шоколад бесплатно
    Вера, любовь и шоколад скачать торрент в хорошем качестве
    Вера, любовь и шоколад смотреть онлайн бесплатно в хорошем качестве


    Вы не можете начинать темы
    Вы не можете отвечать на сообщения
    Вы не можете редактировать свои сообщения
    Вы не можете удалять свои сообщения
    Вы не можете голосовать в опросах
    Вы не можете прикреплять файлы к сообщениям
    Вы можете скачивать файлы