Ссылка на приватное зеркало всего за 1$. Внимание количество ограничено!!!

iTunes

1+1

iTunes

мы

MV0

1

WEB-DLRip

Джокер

Пифагор

Ведьмак / The Witcher сериал

iTunes

ПШазам

iTunes

Оно 2

iTunes

30
pack

Вам бонус

ВАЖНО

!!Акция!!

Alien_RageХит недели

RePack

Resident Evil 21

ИГРА 18+

pack

RePack

jed

!!Акция!!

Alien_Rage

RePack

fifa19

RePack

Assassins Creed: Odyssey

RePack

NEED FOR SPEED™ PAYBACK

4 сезон

9 сезон

Бесстыжие 9 сезон

Все сериалы

все сериалы на PB.wtf

RePack

FAR CRY 5
  

Здравствуй, Гнат (Виктор Ивченко) [1962, СССР, военный, VHSRip от AVP Studio] pb.wtf

Здравствуй, Гнат через торрент pb.wtf

Размер: 1.23 GB | Добавлен: 1 год 2 мес. назад | Торрент скачан:10 раз
Скачать  

18-12-2018 08:28 Здравствуй, Гнат Скачать торрент  

Здравствуй, Гнат
Страна: СССР
Производство: Киностудия им. А. Довженко

Жанр: военный
Год выпуска: 1962
Продолжительность: 01:23:18

Перевод: Не требуется
Cубтитры: нет
Оригинальная аудиодорожка: русский

Режиссер: Виктор Ивченко

В ролях:
Анатолий Соловьёв, Нинель Мышкова, Всеволод Сафонов, Валерий Бессараб, Георгий Дрозд, Инна Журавель, А. Мусатова, Павел Клёнов, Борис Мирус, Пётр Вескляров, Лев Перфилов, Георгий Полинский, Владимир Данченко, Домиан Козачковский...
Об актёрах подробней

Описание:
При строительстве нефтепровода обнаружена невзорвавшаяся донная мина. Водолаз Гнат Марченко (Анатолий Соловьёв) принимает решение: поднять мину до прихода военных специалистов. В самый разгар работы оползень обрушил на водолаза сотни тонн грунта. Помощь прибудет только к утру. Выдержит ли Гнат? Он вспоминает военные годы. Тогда матрос Марченко получил необычное задание: доставить секретный приказ так, чтобы он попал в руки фашистов и чтобы у них не возникло подозрения о его подлинности.

Исходник: VHS
Качество видео: VHSRip
Формат видео: AVI

Видео: 688x512 (4:3), 25,000 кадров/сек, XviD ~ 1911 kbps avg, 0.217 bit/pixel
Аудио: 48 kHz, Dolby Digital AC3 2.0, 192 kbps

Раздача от:
Общее
Полное имя : Zdravstvuy,Gnat.1962.VHSRip_[New-team]_by_AVP_Studio.avi
Формат : AVI
Формат/Информация : Audio Video Interleave
Размер файла : 1,23 Гбайт
Продолжительность : 1 ч. 23 м.
Общий поток : 2112 Кбит/сек
Программа кодирования : VirtualDubModRus 1.5.10.2 (build 2540/release)
Библиотека кодирования : VirtualDubMod build 2540/release

Видео
Идентификатор : 0
Формат : MPEG-4 Visual
Профиль формата : Advanced Simple@L5
Настройки формата : BVOP1 / Custom Matrix
Параметр BVOP формата : 1
Параметр QPel формата : Нет
Параметр GMC формата : Без точки перехода
Параметр матрицы формата : Выборочная
Идентификатор кодека : XVID
Идентификатор кодека/Подсказка : XviD
Продолжительность : 1 ч. 23 м.
Битрейт : 1911 Кбит/сек
Ширина : 688 пикселей
Высота : 512 пикселей
Соотношение сторон : 4:3
Частота кадров : 25,000 кадров/сек
Цветовое пространство : YUV
Субдискретизация насыщенности : 4:2:0
Битовая глубина : 8 бит
Тип развёртки : Прогрессивная
Метод сжатия : С потерями
Бит/(Пиксели*Кадры) : 0.217
Размер потока : 1,11 Гбайт (90%)
Библиотека кодирования : XviD 73

Аудио
Идентификатор : 1
Формат : AC-3
Формат/Информация : Audio Coding 3
Коммерческое название : Dolby Digital
Идентификатор кодека : 2000
Продолжительность : 1 ч. 23 м.
Вид битрейта : Постоянный
Битрейт : 192 Кбит/сек
Каналы : 2 канала
Channel layout : L R
Частота : 48,0 КГц
Частота кадров : 31,250 кадров/сек (1536 SPF)
Битовая глубина : 16 бит
Метод сжатия : С потерями
Задержка видео : 8 мс.
Размер потока : 114 Мбайт (9%)
Выравнивание : Разделение по промежуткам
Продолжительность промежутка : 40 мс. (1,00 видеокадр)
Время предзагрузки промежутка : 500 мс
pb.wtf



Скачать Здравствуй, Гнат через торрент http://picplus.ru/img/1812/18/8e2a8cf4.png Скачать фильм Здравствуй, Гнат через торрент бесплантно в хорошем качестве Описание:При строительстве нефтепровода обнаружена невзорвавшаяся донная мина. Водолаз Гнат Марченко (Анатолий Соловьёв) принимает решение: ... 5 10 1
Info! Золотая раздача, скачанное не засчитывается.
Торрент: Зарегистрирован [2018-12-18 08:28] · скачан: 10 раз
Статус: √ проверено
Размер: 1.23 GB
Как cкачать? Как скачать Здравствуй, Гнат через торрент | qTorrent

% Раздел Тема Автор DL S | L
Кино СССР [ 1.09 GB ] Здравствуй Гнат [1962 СССР военный VHSRip-AVC от AVP Studio] AVP Studio Скачать
1 | 0

28-11-2019 20:33  

Отключить всю рекламу на сайте

    Дорогой пользователь! Огромная просьба, поблагодарите релизера, оцените раздачу и оставьте свои комментарий, если Вы скачали Здравствуй, Гнат через торрент бесплатно! Внесите свою лепту в развитие PiratBit!
    Комментировать посты могут только пользователи прошедшие не сложную регистрацию
    Показать сообщения:    

    Здравствуй, Гнат через торрент
    Скачать бесплатно Здравствуй, Гнат
    Здравствуй, Гнат скачать торрент
    Здравствуй, Гнат смотреть онлайн
    Cкачать фильм Здравствуй, Гнат бесплатно
    Здравствуй, Гнат скачать торрент в хорошем качестве
    Здравствуй, Гнат смотреть онлайн бесплатно в хорошем качестве


    Вы не можете начинать темы
    Вы не можете отвечать на сообщения
    Вы не можете редактировать свои сообщения
    Вы не можете удалять свои сообщения
    Вы не можете голосовать в опросах
    Вы не можете прикреплять файлы к сообщениям
    Вы можете скачивать файлы