Ссылка на приватное зеркало всего за 1$. Внимание количество ограничено!!!

OK

1+1

iTunes

мы

OK

1

WEB-DLRip

Джокер

Пифагор

Ведьмак / The Witcher сериал

iTunes

ПШазам

ОК

Оно 2

iTunes

30
pack

Вам бонус

ВАЖНО

!!Акция!!

Alien_RageХит недели

RePack

Resident Evil 21

ИГРА 18+

pack

RePack

jed

RePack

fifa19

RePack

Assassins Creed: Odyssey

RePack

NEED FOR SPEED™ PAYBACK

4 сезон

9 сезон

Бесстыжие 9 сезон

Все сериалы

все сериалы на PB.wtf

RePack

FAR CRY 5
  

Теперь темно / Now It's Dark (Ариль Остин Оммундсен) [2018, драма, детектив, WEB-DL 720p] MVO ["Синема УС"] pb.wtf

Теперь темно через торрент pb.wtf

Размер: 4.26 GB | Добавлен: 1 год 1 мес. назад | Торрент скачан:21 раз
Скачать  

18-12-2018 11:38 Теперь темно Скачать торрент  

Теперь темно / Now It's DarkГод выпуска: 2018
Страна: Норвегия
Жанр: драма, детектив
Продолжительность: 02:08:13
Перевод: Любительский (многоголосый) | "Синема УС"
Субтитры: отсутствуют

Режиссер: Ариль Остин Оммундсен

rating

В ролях:

Кристоффер Йонер, Нильс Йорген Каалстад, Оле Кристоффер Эртвог, Александра Гйерпен, Пиа Тьелта, Вегар Хуль, Пер Кьерштад Андерсен, Томас Аске Берг, Томас Альф Ларсен, Эгиль Биркеланд

Описание:

Когда Лена разыскивает своего отчужденного мужа в надежде на примирение, она находит его в постели с новой любовницей. Потрясенная, она покидает место происшествия и отправляется в путешествие ночью, которое приводит ее на экзистенциальную прогулку на американских горках по сновидениям и в очень темные места.

Качество: WEB-DL 720p
Формат: MKV

Видео: h.264, 4 375 kb/s, 1280x536
Аудио#1: Русский, (AC3, 2 ch, 384 Кбит/с)
скриншот  скриншот  скриншот  

Общее
Уникальный идентификатор : 235008406915407489653674298904407816866 (0xB0CCF909D245F3CEB3B3E37DD65DBAA2)
Полное имя : D:\Now.Its.Dark.2018.P.WEB_DL.72Op_KOSHARA.mkv
Формат : Matroska
Версия формата : Version 2
Размер файла : 4,26 Гбайт
Продолжительность : 2 ч. 8 м.
Режим общего битрейта : Переменный
Общий поток : 4761 Кбит/сек
Дата кодирования : UTC 2018-12-18 09:03:38
Программа кодирования : mkvmerge v8.3.0 ('Over the Horizon') 64bit
Библиотека кодирования : libebml v1.3.1 + libmatroska v1.4.2

Видео
Идентификатор : 1
Формат : AVC
Формат/Информация : Advanced Video Codec
Профиль формата : High@L4.1
Параметр CABAC формата : Да
Параметр RefFrames формата : 4 кадра
Идентификатор кодека : V_MPEG4/ISO/AVC
Продолжительность : 2 ч. 8 м.
Вид битрейта : Переменный
Битрейт : 4375 Кбит/сек
Максимальный битрейт : 5000 Кбит/сек
Ширина : 1280 пикселей
Высота : 536 пикселей
Соотношение сторон : 2,40:1
Режим частоты кадров : Постоянный
Частота кадров : 23,976 (24000/1001) кадра/сек
Стандарт вещания : Component
Цветовое пространство : YUV
Субдискретизация насыщенности : 4:2:0
Битовая глубина : 8 бит
Тип развёртки : Прогрессивная
Бит/(Пиксели*Кадры) : 0.260
Размер потока : 3,84 Гбайт (90%)
Default : Да
Forced : Нет
Цветовой диапазон : Limited
Основные цвета : BT.709
Характеристики трансфера : BT.709
Коэффициенты матрицы : BT.709

Аудио
Идентификатор : 2
Формат : AC-3
Формат/Информация : Audio Coding 3
Расширение режима : CM (complete main)
Параметр Endianness формата : Big
Идентификатор кодека : A_AC3
Продолжительность : 2 ч. 8 м.
Вид битрейта : Постоянный
Битрейт : 384 Кбит/сек
Каналы : 2 канала
Расположение каналов : Front: L R
Частота : 48,0 КГц
Частота кадров : 31,250 кадров/сек (1536 spf)
Метод сжатия : С потерями
Размер потока : 352 Мбайт (8%)
Default : Да
Forced : Нет

pb.wtf



Скачать Теперь темно через торрент http://img14.lostpic.net/2018/12/18/c1d6452b35d66088d73b33ff4133ce59.jpg Скачать фильм Теперь темно через торрент бесплантно в хорошем качестве Описание: Когда Лена разыскивает своего отчужденного мужа в надежде на примирение, она находит его в постели с новой любовницей. ... 10 10 2
Торрент: Зарегистрирован [2018-12-18 11:38] · скачан: 21 раз
Статус: T временная
Размер: 4.26 GB
Как cкачать? Как скачать Теперь темно через торрент | qTorrent

28-11-2019 20:33  

Отключить всю рекламу на сайте

    Дорогой пользователь! Огромная просьба, поблагодарите релизера, оцените раздачу и оставьте свои комментарий, если Вы скачали Теперь темно через торрент бесплатно! Внесите свою лепту в развитие PiratBit!
    Комментировать посты могут только пользователи прошедшие не сложную регистрацию
    Показать сообщения:    

    Теперь темно через торрент
    Скачать бесплатно Теперь темно
    Теперь темно скачать торрент
    Теперь темно смотреть онлайн
    Cкачать фильм Теперь темно бесплатно
    Теперь темно скачать торрент в хорошем качестве
    Теперь темно смотреть онлайн бесплатно в хорошем качестве


    Вы не можете начинать темы
    Вы не можете отвечать на сообщения
    Вы не можете редактировать свои сообщения
    Вы не можете удалять свои сообщения
    Вы не можете голосовать в опросах
    Вы не можете прикреплять файлы к сообщениям
    Вы можете скачивать файлы